Valutazione 4.87/ 5 (100.00%) 5838 voti

Condividi:        

Player da tavolo .mkv - 16:9

Forum per confrontarsi sui migliori prodotti hardware e software in circolazione. Quali meglio acquistare a seconda delle proprie esigenze? Quanto valutare il proprio usato? Questo NON è un forum dove pubblicizzare la vendita di prodotti.

Moderatore: Luke57

Player da tavolo .mkv - 16:9

Postdi nikita75 » 01/09/15 09:06

Ciao , potreste consigliarmi un ottimo player da tavolo che legga di tutto (all Mode codec) ?? vorrrei che leggesse i file .mkv con queste caratteristiche

General
Unique ID : 173110319084400841216886863746864963204 (0x823BD5B0419CC3C6B1E326C80C0EDE84)
Complete name : E:..........................................(2014)-alE13.mkv
Format : Matroska
Format version : Version 4 / Version 2
File size : 3.72 GiB
Duration : 1h 54mn
Overall bit rate : 4 630 Kbps
Movie name : -----------------------
Encoded date : UTC 2014-04-07 14:47:32
Writing application : mkvmerge v6.8.0 ('Theme for Great Cities') 32bit built on Mar 2 2014 21:27:07
Writing library : libebml v1.3.0 + libmatroska v1.4.1

Video
ID : 1
Format : AVC
Format/Info : Advanced Video Codec
Format profile : High@L3.1
Format settings, CABAC : Yes
Format settings, ReFrames : 2 frames
Codec ID : V_MPEG4/ISO/AVC
Duration : 1h 54mn
Bit rate : 2 800 Kbps
Width : 1 280 pixels
Height : 720 pixels
Display aspect ratio : 16:9
Frame rate mode : Constant
Frame rate : 23.976 fps
Color space : YUV
Chroma subsampling : 4:2:0
Bit depth : 8 bits
Scan type : Progressive
Bits/(Pixel*Frame) : 0.127
Stream size : 2.17 GiB (59%)
Title : ,,,,,,,,,,,,,,,
Writing library : x264 core 129
Encoding settings : cabac=1 / ref=2 / deblock=1:0:0 / analyse=0x3:0x113 / me=hex / subme=6 / psy=1 / psy_rd=1.00:0.00 / mixed_ref=1 / me_range=16 / chroma_me=1 / trellis=0 / 8x8dct=1 / cqm=0 / deadzone=21,11 / fast_pskip=1 / chroma_qp_offset=-2 / threads=4 / lookahead_threads=1 / sliced_threads=0 / nr=0 / decimate=1 / interlaced=0 / bluray_compat=0 / constrained_intra=0 / bframes=0 / weightp=2 / keyint=250 / keyint_min=25 / scenecut=40 / intra_refresh=0 / rc_lookahead=40 / rc=2pass / mbtree=1 / bitrate=2800 / ratetol=1.0 / qcomp=0.60 / qpmin=10 / qpmax=51 / qpstep=4 / cplxblur=20.0 / qblur=0.5 / ip_ratio=1.41 / aq=1:1.00
Default : Yes
Forced : No

Audio #1
ID : 2
Format : DTS
Format/Info : Digital Theater Systems
Mode : 16
Format settings, Endianness : Big
Codec ID : A_DTS
Duration : 1h 54mn
Bit rate mode : Constant
Bit rate : 1 509 Kbps
Channel(s) : 6 channels
Channel positions : Front: L C R, Side: L R, LFE
Sampling rate : 48.0 KHz
Bit depth : 24 bits
Compression mode : Lossy
Stream size : 1.21 GiB (33%)
Title : ...................... Live in Amsterdam (2014)-alE13_DTS @ 1509 Kbps_5.1
Language : English
Default : Yes
Forced : No

Audio #2
ID : 3
Format : AC-3
Format/Info : Audio Coding 3
Mode extension : CM (complete main)
Format settings, Endianness : Big
Codec ID : A_AC3
Duration : 1h 54mn
Bit rate mode : Constant
Bit rate : 320 Kbps
Channel(s) : 6 channels
Channel positions : Front: L C R, Side: L R, LFE
Sampling rate : 48.0 KHz
Bit depth : 16 bits
Compression mode : Lossy
Stream size : 263 MiB (7%)
Title :
Language : English
Default : No
Forced : No

Menu
00:00:00.000 : en:Amsterdam, Amsterdam!
00:01:38.348 : en:Them There Eyes
00:04:47.954 : en:Sinner's Prayer
00:09:14.888 : en:Can't Let Go
00:14:34.832 : en:For My Friends
00:19:31.170 : en:Close To My Fire
00:25:21.937 : en:Rhymes
00:30:34.041 : en:Something's Got A Hold On Me
00:36:51.960 : en:Your Heart Is As Black As Night
00:42:26.961 : en:Chocolate Jesus
00:45:44.659 : en:Baddest Blues
00:51:02.351 : en:Someday After Awhile (You ll Be Sorry)
00:57:04.046 : en:Beth introduces the band
00:58:57.451 : en:Well, well
01:03:51.327 : en:If I Tell You I Love You
01:07:55.780 : en:See Saw
01:11:16.022 : en:Strange Fruit
01:17:28.602 : en:Miss Lady
01:25:40.552 : en:I Love You More Than You'll Ever Know
01:33:32.816 : en:Nutbush City Limits
01:38:44.085 : en:I'd Rather Go Blind
01:48:55.195 : en:Antwerp Jam (Credits)
Avatar utente
nikita75
Utente Senior
 
Post: 4390
Iscritto il: 31/07/09 13:36

Sponsor
 

Re: Player da tavolo .mkv - 16:9

Postdi nikita75 » 21/09/15 08:47

up :neutral:
Avatar utente
nikita75
Utente Senior
 
Post: 4390
Iscritto il: 31/07/09 13:36

Re: Player da tavolo .mkv - 16:9

Postdi davide72 » 10/10/15 10:48

Avatar utente
davide72
Utente Senior
 
Post: 5589
Iscritto il: 10/06/14 22:01

Re: Player da tavolo .mkv - 16:9

Postdi quizface » 10/10/15 13:07

nikita75 ha scritto:up :neutral:


Hai provato con un semplicissimo WD TV LIVE il mio (vecchio modello) legge ancora di tutto, se poi non ti va bene con le amazzoni lo mandi indietro tranquillamente.
Se vuoi spendere meno, sulla baya di usati ce ne sono a dozzine.
Se non siete sicuri di quello che scrivete, non scrivete niente, nessuno vi obbliga ed eviterete di confondere chi gia' e' confuso. Ciao..ciao

Immagine
Avatar utente
quizface
Utente Senior
 
Post: 14162
Iscritto il: 03/10/04 00:36

Re: Player da tavolo .mkv - 16:9

Postdi nikita75 » 12/10/15 21:36

Grazie Quizface , e davide 72 , prodotti molto interessanti! Valuto attentamente le schede tecniche!
Avatar utente
nikita75
Utente Senior
 
Post: 4390
Iscritto il: 31/07/09 13:36


Torna a Consigli per gli acquisti


Topic correlati a "Player da tavolo .mkv - 16:9":


Chi c’è in linea

Visitano il forum: Nessuno e 2 ospiti