Valutazione 4.87/ 5 (100.00%) 5838 voti

Condividi:        

Lettore da tavolo Divx - non riesco a convertire un filmato

Se il modem non funziona, hai problemi con la scheda video o non sai che processore scegliere entra qui!!

Moderatore: Caffey

Lettore da tavolo Divx - non riesco a convertire un filmato

Postdi GymPC » 26/09/15 10:42

E' da ore che sto provandole di tutte per far leggere un video al mio lettore da tavolo Divx. Uso Any VideoConverter ma non trovo il formato giusto, il lettore mi dice "formato non supportato".
Potreste aiutarmi ad azzeccare il formato giusto?

Ecco le specifiche di lettura del lettore:
Immagine
GymPC
Utente Senior
 
Post: 157
Iscritto il: 06/05/14 18:46

Sponsor
 

Re: Lettore da tavolo Divx - non riesco a convertire un film

Postdi quizface » 26/09/15 11:04

Prima cosa ti conviene aggiornale il lettore multimediale, con poco prendi un WD TV Live (magari usato) che legge tutto (tranne i nuovissimi H265)
Poi che programma usi per fare o trasformare il video in oggetto?
Se non siete sicuri di quello che scrivete, non scrivete niente, nessuno vi obbliga ed eviterete di confondere chi gia' e' confuso. Ciao..ciao

Immagine
Avatar utente
quizface
Utente Senior
 
Post: 14164
Iscritto il: 03/10/04 00:36

Re: Lettore da tavolo Divx - non riesco a convertire un film

Postdi GymPC » 26/09/15 15:02

Uso Any VideoConverter come ho detto nel primo messaggio.
Mi basterebbe sapere cosa devo impostare nel suddetto programma.
GymPC
Utente Senior
 
Post: 157
Iscritto il: 06/05/14 18:46

Re: Lettore da tavolo Divx - non riesco a convertire un film

Postdi quizface » 26/09/15 16:45

Hai provato MPEG-II Movie (*.mpg)
Se non siete sicuri di quello che scrivete, non scrivete niente, nessuno vi obbliga ed eviterete di confondere chi gia' e' confuso. Ciao..ciao

Immagine
Avatar utente
quizface
Utente Senior
 
Post: 14164
Iscritto il: 03/10/04 00:36

Re: Lettore da tavolo Divx - non riesco a convertire un film

Postdi GymPC » 26/09/15 17:31

Si, ma niente, formato non supportato.
GymPC
Utente Senior
 
Post: 157
Iscritto il: 06/05/14 18:46

Re: Lettore da tavolo Divx - non riesco a convertire un film

Postdi fax71ita » 26/09/15 18:24

Prova format factory.

Ma adesso il file in che formato lo vedi?

L' hai scaricato dalla rete?
Avatar utente
fax71ita
Utente Senior
 
Post: 890
Iscritto il: 20/03/15 10:43
Località: Torino

Re: Lettore da tavolo Divx - non riesco a convertire un film

Postdi GymPC » 27/09/15 07:31

Vorrei utilizzare "Any Video Converter" dato che ho la versione "Ultimate" invece che format factory.

Come faccio a vedere in che formato lo vedo? E' un AVI ma credo che non basti dire questo per il formato. Comunque ho usato lo stesso format factory, da te consigliato e il media file info dice:

Format : AVI
Format/Info : Audio Video Interleave
File size : 614 MiB
Duration : 43mn 59s
Overall bit rate : 1 952 Kbps

Video
ID : 0
Format : MPEG-4 Visual
Format settings, BVOP : 1
Format settings, QPel : No
Format settings, GMC : No warppoints
Format settings, Matrix : Default (H.263)
Muxing mode : Packed bitstream
Codec ID : DX50
Codec ID/Hint : DivX 5
Duration : 43mn 59s
Bit rate : 1 751 Kbps
Width : 1 024 pixels
Height : 576 pixels
Display aspect ratio : 16:9
Frame rate : 25.000 fps
Color space : YUV
Chroma subsampling : 4:2:0
Bit depth : 8 bits
Scan type : Progressive
Compression mode : Lossy
Bits/(Pixel*Frame) : 0.119
Stream size : 551 MiB (90%)
Title : Video
Writing library : DivX 2682

Audio
ID : 1
Format : MPEG Audio
Format version : Version 1
Format profile : Layer 3
Mode : Joint stereo
Mode extension : MS Stereo
Codec ID : 55
Codec ID/Hint : MP3
Duration : 43mn 59s
Bit rate mode : Constant
Bit rate : 192 Kbps
Channel(s) : 2 channels
Sampling rate : 48.0 KHz
Compression mode : Lossy
Stream size : 60.4 MiB (10%)
Alignment : Split accross interleaves
Interleave, duration : 40 ms (1.00 video frame)
Interleave, preload duration : 500 ms
Title : Audio - en-US01


Si, il video è stato scaricato.

Ogni volta che scarico dalla rete molti formati Divx sono compatibili con il lettore ma molti altri devo destreggiarmi tra mille tentativi per farli leggere. Mi basterebbe sapere il formato unico in cui il mio lettore da tavolo Divx li legga.
GymPC
Utente Senior
 
Post: 157
Iscritto il: 06/05/14 18:46

Re: Lettore da tavolo Divx - non riesco a convertire un film

Postdi quizface » 27/09/15 10:00

Togli il 'packed bitstream' MPEG4 Modifier
Se non siete sicuri di quello che scrivete, non scrivete niente, nessuno vi obbliga ed eviterete di confondere chi gia' e' confuso. Ciao..ciao

Immagine
Avatar utente
quizface
Utente Senior
 
Post: 14164
Iscritto il: 03/10/04 00:36

Re: Lettore da tavolo Divx - non riesco a convertire un film

Postdi GymPC » 27/09/15 15:30

NON ha funzionato. Ho tolto, a quanto pare, il "packed bitstream" con MPEG4Modifier entrando nel programma, selezionando il file, mettendo la spunta a "Unpack" nella casella packed bitstream e nella casella "User Data" editando il la sigla al posto della p finale mettendo la n (questa guida l'ho trovata desso in rete) ma non legge il file il lettore sento solo l'audio.
Comunque è incredibile tutti questi casini per far leggere al lettore per giunta Divx un semplice video. Come detto mi basterebbe sapere cosa settare con "Any Video Converter".
GymPC
Utente Senior
 
Post: 157
Iscritto il: 06/05/14 18:46

Re: Lettore da tavolo Divx - non riesco a convertire un film

Postdi quizface » 27/09/15 16:43

Torno a dirti, avresti meno casini, meno arrabbiature e molta piu qualita' con un player piu' moderno che legga anche H264 .mkv Quello che hai, dopo oltre 10 anni ha fatto il suo tempo
Se non siete sicuri di quello che scrivete, non scrivete niente, nessuno vi obbliga ed eviterete di confondere chi gia' e' confuso. Ciao..ciao

Immagine
Avatar utente
quizface
Utente Senior
 
Post: 14164
Iscritto il: 03/10/04 00:36

Re: Lettore da tavolo Divx - non riesco a convertire un film

Postdi GymPC » 27/09/15 18:17

quizface ha scritto:Torno a dirti, avresti meno casini, meno arrabbiature e molta piu qualita' con un player piu' moderno che legga anche H264 .mkv Quello che hai, dopo oltre 10 anni ha fatto il suo tempo


Lo so perfettamente che spendendo 50-100 euro avrei meno casini con i formati ma anche in quel caso non mi un' impresa così difficile convertire un video che riesca a leggerlo un lettore Divx da tavolo. Tuttavia non mi avete dato ancora una soluzione.
GymPC
Utente Senior
 
Post: 157
Iscritto il: 06/05/14 18:46

Re: Lettore da tavolo Divx - non riesco a convertire un film

Postdi quizface » 27/09/15 18:38

controlla cosa dice Media File Info su un file che si vede, con uno che non di vede e vedi le differenze
Se non siete sicuri di quello che scrivete, non scrivete niente, nessuno vi obbliga ed eviterete di confondere chi gia' e' confuso. Ciao..ciao

Immagine
Avatar utente
quizface
Utente Senior
 
Post: 14164
Iscritto il: 03/10/04 00:36


Torna a Assistenza Hardware


Topic correlati a "Lettore da tavolo Divx - non riesco a convertire un filmato":


Chi c’è in linea

Visitano il forum: Nessuno e 3 ospiti