Valutazione 4.87/ 5 (100.00%) 5838 voti

Condividi:        

VlC Media Player - video in blocco per 4K

Problemi di Codec - AC3, MPEG, DivX, Xvid...? Vuoi aiuto con la tua musica? Non sai come masterizzare i tuoi mp3? In questo forum tutte le risposte alle tue domande legali!

Moderatori: axelrox, m.paolo

VlC Media Player - video in blocco per 4K

Postdi nikita75 » 16/03/18 20:38

Riproducendo questo video in 4 K ,dopo pochissimi secondi l'immagine si blocca e la riproduzione non avanza :x
Uso windows 7 pro a 64 bit!




Format : MPEG-4
Format profile : Base Media
Codec ID : isom (isom/iso2/avc1/mp41)
File size : 8.33 GiB
Duration : 37 min 17 s
Overall bit rate : 32.0 Mb/s
Writing application : Lavf56.40.101

Video
ID : 2
Format : AVC
Format/Info : Advanced Video Codec
Format profile : High@L5.1
Format settings : CABAC / 4 Ref Frames
Format settings, CABAC : Yes
Format settings, ReFrames : 4 frames
Codec ID : avc1
Codec ID/Info : Advanced Video Coding
Duration : 37 min 17 s
Bit rate : 32.0 Mb/s
Width : 3 840 pixels
Height : 2 160 pixels
Display aspect ratio : 16:9
Frame rate mode : Constant
Frame rate : 25.000 FPS
Color space : YUV
Chroma subsampling : 4:2:0
Bit depth : 8 bits
Scan type : Progressive
Bits/(Pixel*Frame) : 0.154
Stream size : 8.26 GiB (99%)
Writing library : x264 core 148 r2643 5c65704
Encoding settings : cabac=1 / ref=3 / deblock=1:0:0 / analyse=0x3:0x113 / me=hex / subme=7 / psy=1 / psy_rd=1.00:0.00 / mixed_ref=1 / me_range=16 / chroma_me=1 / trellis=1 / 8x8dct=1 / cqm=0 / deadzone=21,11 / fast_pskip=1 / chroma_qp_offset=-2 / threads=16 / lookahead_threads=2 / sliced_threads=0 / nr=0 / decimate=1 / interlaced=0 / bluray_compat=0 / constrained_intra=0 / bframes=3 / b_pyramid=2 / b_adapt=1 / b_bias=0 / direct=1 / weightb=1 / open_gop=0 / weightp=2 / keyint=250 / keyint_min=25 / scenecut=40 / intra_refresh=0 / rc_lookahead=40 / rc=abr / mbtree=1 / bitrate=32000 / ratetol=1.0 / qcomp=0.60 / qpmin=0 / qpmax=69 / qpstep=4 / ip_ratio=1.40 / aq=1:1.00

Audio
ID : 1
Format : AAC
Format/Info : Advanced Audio Codec
Format profile : LC
Codec ID : mp4a-40-2
Duration : 37 min 17 s
Duration_LastFrame : -7 ms
Bit rate mode : Constant
Bit rate : 265 kb/s
Channel(s) : 2 channels
Channel positions : Front: L R
Sampling rate : 44.1 kHz
Frame rate : 43.066 FPS (1024 SPF)
Compression mode : Lossy
Stream size : 70.4 MiB (1%)
Default : Yes
Alternate group : 1


:::::::::::::::::::----------------------------------------------------------------------------------------

Il mio pc
Immagine
Graphics
Monitor
Name Monitor generico Plug and Play on AMD Radeon HD 8210
Current Resolution 1366x768 pixels
Work Resolution 1366x728 pixels
State Enabled, Primary
Monitor Width 1366
Monitor Height 768
Monitor BPP 32 bits per pixel
Monitor Frequency 60 Hz
Device \\.\DISPLAY1\Monitor0
ATI AMD Radeon HD 8210
Manufacturer ATI
Model AMD Radeon HD 8210
Device ID 1002-9834
Subvendor HP (103C)
Current Performance Level Level 0
GPU Clock 300,0 MHz
Temperature 43 °C
Bios Core Clock 200,00
Bios Mem Clock 667,00
Driver version 13.351.1105.1005
Memory Type DDR3
Memory 512 MB
Bandwidth 10,7 GB/s
Count of performance levels : 2
Level 1 - "Perf Level 0"
GPU Clock 200 MHz
Shader Clock 667 MHz
Level 2 - "Perf Level 1"
GPU Clock 300 MHz
Shader Clock 667 MHz

PC da rottamare ?? o il player non è adatto a supportare il 4 K ?? cosa suggerite??
Avatar utente
nikita75
Utente Senior
 
Post: 4908
Iscritto il: 31/07/09 13:36
Località: Alberobello (Bari )

Sponsor
 

Re: VlC Media Player - video in blocco per 4K

Postdi fax71ita » 16/03/18 23:21

Immagine
Avatar utente
fax71ita
Utente Senior
 
Post: 1669
Iscritto il: 20/03/15 10:43
Località: Torino

Re: VlC Media Player - video in blocco per 4K

Postdi nikita75 » 17/03/18 11:22

grazie fax71ita , provo immediatamente!
stavo effettuando la conversione di questo video con WIN X HD.....è pesante anche da convertire!
Avatar utente
nikita75
Utente Senior
 
Post: 4908
Iscritto il: 31/07/09 13:36
Località: Alberobello (Bari )

Re: VlC Media Player - video in blocco per 4K

Postdi nikita75 » 17/03/18 12:07

nikita75 ha scritto:grazie fax71ita , provo immediatamente!
stavo effettuando la conversione di questo video con WIN X HD.....è pesante anche da convertire!


ho provato ad effettuare i nuovi settaggi! Nessun risultato - il video si blocca dopo 1 secondo - ascolto bene solo audio!
Avatar utente
nikita75
Utente Senior
 
Post: 4908
Iscritto il: 31/07/09 13:36
Località: Alberobello (Bari )

Re: VlC Media Player - video in blocco per 4K

Postdi fax71ita » 17/03/18 17:25

Fai dei test 4k che trovi su YouTube
Per capire se è il PC o il player
Immagine
Avatar utente
fax71ita
Utente Senior
 
Post: 1669
Iscritto il: 20/03/15 10:43
Località: Torino

Re: VlC Media Player - video in blocco per 4K

Postdi nikita75 » 19/03/18 13:38

Grazie fx71ita ,puoi darmi un link di riferimento?? cosa suggerisci?
Avatar utente
nikita75
Utente Senior
 
Post: 4908
Iscritto il: 31/07/09 13:36
Località: Alberobello (Bari )

Re: VlC Media Player - video in blocco per 4K

Postdi fax71ita » 19/03/18 14:41

ciao

sono video su youtube normalissimi.. scrivi test 4k sulla barra di YT.

ho cmq il sospetto che vedere 4K su pc ci vuole un hardware di ultima generazionee monitor predisposto alla visione in 4K
Immagine
Avatar utente
fax71ita
Utente Senior
 
Post: 1669
Iscritto il: 20/03/15 10:43
Località: Torino

Re: VlC Media Player - video in blocco per 4K

Postdi nikita75 » 20/03/18 11:05

Avatar utente
nikita75
Utente Senior
 
Post: 4908
Iscritto il: 31/07/09 13:36
Località: Alberobello (Bari )

Re: VlC Media Player - video in blocco per 4K

Postdi nikita75 » 20/03/18 11:57

non so se questo link per l'editor video in 4 k sia anche utile per una sua corretta riproduzione
editing in 4k minimi requisiti richiesti
Avatar utente
nikita75
Utente Senior
 
Post: 4908
Iscritto il: 31/07/09 13:36
Località: Alberobello (Bari )

Re: VlC Media Player - video in blocco per 4K

Postdi fax71ita » 20/03/18 12:31

non saprei...
prova anche questi player.
https://www.ideepercomputeredinternet.c ... r-vlc.html
Immagine
Avatar utente
fax71ita
Utente Senior
 
Post: 1669
Iscritto il: 20/03/15 10:43
Località: Torino

Re: VlC Media Player - video in blocco per 4K

Postdi nikita75 » 20/03/18 21:08

:?: fax71ita puoi indicarmi se possibile un download video ufficiale in 4k per testare con il mio pc il funzionamento dei vari vlc e MPC HC ...E ALTRI player :?:

con MPC HC e il mega codec pack riesco a vedere qualsiasi video ...ma non questo -
vorrei testare un 4k official :mmmh: :mmmh:
Avatar utente
nikita75
Utente Senior
 
Post: 4908
Iscritto il: 31/07/09 13:36
Località: Alberobello (Bari )

Re: VlC Media Player - video in blocco per 4K

Postdi fax71ita » 21/03/18 09:50

Immagine
Avatar utente
fax71ita
Utente Senior
 
Post: 1669
Iscritto il: 20/03/15 10:43
Località: Torino

Re: VlC Media Player - video in blocco per 4K

Postdi nikita75 » 24/03/18 12:06

Ho provato con questo altro video ---vlc media player si inchioda anche facendo zapping con il cursore
MPC HC Media Player home cinema ...vedo il video che scorre ma a scatti!!

potrei provare con un altro player dedicato al 4 k ...o la situazione non cambierebbe??


Complete name : G:\ altro video 4K.mp4
Format : MPEG-4
Format profile : Base Media / Version 2
Codec ID : mp42 (isom/mp42)
File size : 1.31 GiB
Duration : 13 min 16 s
Overall bit rate mode : Variable
Overall bit rate : 14.2 Mb/s
Encoded date : UTC 2017-11-20 13:21:24
Tagged date : UTC 2017-11-20 13:21:24

Video
ID : 1
Format : AVC
Format/Info : Advanced Video Codec
Format profile : High@L5.1
Format settings : CABAC / 1 Ref Frames
Format settings, CABAC : Yes
Format settings, ReFrames : 1 frame
Format settings, GOP : M=1, N=30
Codec ID : avc1
Codec ID/Info : Advanced Video Coding
Duration : 13 min 16 s
Bit rate : 14.0 Mb/s
Width : 3 840 pixels
Height : 2 160 pixels

Display aspect ratio : 16:9
Frame rate mode : Constant
Frame rate : 29.970 (30000/1001) FPS
Color space : YUV
Chroma subsampling : 4:2:0
Bit depth : 8 bits
Scan type : Progressive
Bits/(Pixel*Frame) : 0.056
Stream size : 1.30 GiB (99%)
Language : English
Encoded date : UTC 2017-11-20 13:21:27
Tagged date : UTC 2017-11-20 13:21:27

Audio
ID : 2
Format : AAC
Format/Info : Advanced Audio Codec
Format profile : LC
Codec ID : mp4a-40-2
Duration : 13 min 16 s
Bit rate mode : Variable
Bit rate : 192 kb/s
Maximum bit rate : 407 kb/s
Channel(s) : 2 channels
Channel positions : Front: L R
Sampling rate : 48.0 kHz
Frame rate : 46.875 FPS (1024 SPF)
Compression mode : Lossy
Stream size : 18.0 MiB (1%)
Language : English
Encoded date : UTC 2017-11-20 13:21:27
Tagged date : UTC 2017-11-20 13:21:27
Avatar utente
nikita75
Utente Senior
 
Post: 4908
Iscritto il: 31/07/09 13:36
Località: Alberobello (Bari )

Re: VlC Media Player - video in blocco per 4K

Postdi fax71ita » 24/03/18 15:10

ciao

come ti accennavo prima, serve un pc predisposto alla visione del 4k.
Immagine
Avatar utente
fax71ita
Utente Senior
 
Post: 1669
Iscritto il: 20/03/15 10:43
Località: Torino


Torna a Audio/Video e masterizzazione


Topic correlati a "VlC Media Player - video in blocco per 4K":

problema scheda video?
Autore: lee27
Forum: Assistenza Hardware
Risposte: 2

Chi c’è in linea

Visitano il forum: Nessuno e 7 ospiti