Valutazione 4.87/ 5 (100.00%) 5838 voti

Condividi:        

mp4 > DVD . conversione

Problemi di Codec - AC3, MPEG, DivX, Xvid...? Vuoi aiuto con la tua musica? Non sai come masterizzare i tuoi mp3? In questo forum tutte le risposte alle tue domande legali!

Moderatori: axelrox, m.paolo

mp4 > DVD . conversione

Postdi nikita75 » 27/07/16 00:38

Come effettuare un'ottima conversione da questo formato in DVD senza perdere qualità audio video e risoluzione ??

Il dvd finale sarà letto da un classico lettore da tavolo pal
http://www.lg.com/it/supporto/supporto- ... lg-DVX9900

General
Complete name : F:\,,,,,,,,,,,,,,,,,,.mp4
Format : MPEG-4
Format profile : Base Media
Codec ID : isom
File size : 789 MiB
Duration : 2h 0mn
Overall bit rate mode : Variable
Overall bit rate : 912 Kbps
Encoded date : UTC 2011-03-23 18:23:23
Tagged date : UTC 2011-03-23 18:23:23

Video
ID : 1
Format : AVC
Format/Info : Advanced Video Codec
Format profile : Baseline@L3.0
Format settings, CABAC : No
Format settings, ReFrames : 1 frame
Format settings, GOP : M=1, N=33
Codec ID : avc1
Codec ID/Info : Advanced Video Coding
Duration : 2h 0mn
Source duration : 2h 0mn
Bit rate mode : Variable
Bit rate : 708 Kbps
Maximum bit rate : 2 072 Kbps
Width : 640 pixels
Height : 360 pixels
Display aspect ratio : 16:9

Frame rate mode : Constant
Frame rate : 29.970 fps
Standard : NTSC

Color space : YUV
Chroma subsampling : 4:2:0
Bit depth : 8 bits
Scan type : Progressive
Bits/(Pixel*Frame) : 0.102
Stream size : 612 MiB (78%)
Source stream size : 648 MiB (82%)
Language : English
Encoded date : UTC 2011-03-23 18:23:23
Tagged date : UTC 2011-03-23 18:23:23
mdhd_Duration : 7247982

Audio
ID : 2
Format : AAC
Format/Info : Advanced Audio Codec
Format profile : LC
Codec ID : 40
Duration : 2h 0mn
Bit rate mode : Constant
Bit rate : 160 Kbps
Channel(s) : 2 channels
Channel positions : Front: L R
Sampling rate : 48.0 KHz
Compression mode : Lossy
Stream size : 138 MiB (18%)
Language : English
Encoded date : UTC 2011-03-23 18:23:23
Tagged date : UTC 2011-03-23 18:23:23
mdhd_Duration : 7275070
Avatar utente
nikita75
Utente Senior
 
Post: 4387
Iscritto il: 31/07/09 13:36

Sponsor
 

Torna a Audio/Video e masterizzazione


Topic correlati a "mp4 > DVD . conversione":


Chi c’è in linea

Visitano il forum: Nessuno e 11 ospiti