Valutazione 4.87/ 5 (100.00%) 5838 voti

Condividi:        

video e audio non sincronizzato

Problemi di Codec - AC3, MPEG, DivX, Xvid...? Vuoi aiuto con la tua musica? Non sai come masterizzare i tuoi mp3? In questo forum tutte le risposte alle tue domande legali!

Moderatori: axelrox, m.paolo

video e audio non sincronizzato

Postdi nikita75 » 30/04/16 14:03

:!: :!:
in mattinata ho ricevuto un file con wetransfer.com dove audio e video non sono sincronizzati
questo è il mediainfo ...cosa suggerite ?? si riesce a capire il problema ?

general
Complete name : F:\ Sunny.mp4
Format : MPEG-4
Format profile : Base Media
Codec ID : isom
File size : 275 MiB
Duration : 8mn 12s
Overall bit rate mode : Variable
Overall bit rate : 4 692 Kbps
Writing application : Lavf54.63.104

Video
ID : 1
Format : AVC
Format/Info : Advanced Video Codec
Format profile : Main@L4.0
Format settings, CABAC : Yes
Format settings, ReFrames : 1 frame
Codec ID : avc1
Codec ID/Info : Advanced Video Coding
Duration : 8mn 12s
Bit rate : 4 496 Kbps
Width : 1 920 pixels
Height : 1 080 pixels
Display aspect ratio : 16:9
Frame rate mode : Constant
Frame rate : 25.000 fps
Color space : YUV
Chroma subsampling : 4:2:0
Bit depth : 8 bits
Scan type : Progressive
Bits/(Pixel*Frame) : 0.087
Stream size : 266 MiB (97%)
Writing library : x264 core 129
Encoding settings : cabac=1 / ref=1 / deblock=1:0:0 / analyse=0x1:0x131 / me=dia / subme=2 / psy=1 / psy_rd=1.00:0.00 / mixed_ref=0 / me_range=16 / chroma_me=1 / trellis=0 / 8x8dct=0 / cqm=0 / deadzone=21,11 / fast_pskip=1 / chroma_qp_offset=0 / threads=2 / lookahead_threads=1 / sliced_threads=0 / nr=0 / decimate=1 / interlaced=0 / bluray_compat=0 / constrained_intra=0 / bframes=0 / weightp=2 / keyint=250 / keyint_min=25 / scenecut=40 / intra_refresh=0 / rc_lookahead=40 / rc=abr / mbtree=1 / bitrate=4496 / ratetol=1.0 / qcomp=0.60 / qpmin=10 / qpmax=51 / qpstep=4 / ip_ratio=1.41 / aq=1:1.00

Audio
ID : 2
Format : AAC
Format/Info : Advanced Audio Codec
Format profile : LC
Codec ID : 40
Duration : 8mn 12s
Duration_FirstFrame : 70ms
Bit rate mode : Variable
Bit rate : 151 Kbps
Maximum bit rate : 176 Kbps
Channel(s) : 2 channels
Channel positions : Front: L R
Sampling rate : 44.1 KHz
Compression mode : Lossy
Stream size : 8.87 MiB (3%)
Avatar utente
nikita75
Utente Senior
 
Post: 4390
Iscritto il: 31/07/09 13:36

Sponsor
 

Re: video e audio non sincronizzato

Postdi davide72 » 30/04/16 15:20

io con media palayer non ho problemi
se usi k lite codec pack > tweak tool >media fondation >prova a disattivare mp4 e disattiva anche mpeg4 tra i codec microsoft
Avatar utente
davide72
Utente Senior
 
Post: 5589
Iscritto il: 10/06/14 22:01


Torna a Audio/Video e masterizzazione


Topic correlati a "video e audio non sincronizzato":

audio audacity su linux
Autore: beppino
Forum: Software Linux
Risposte: 2

Chi c’è in linea

Visitano il forum: Nessuno e 2 ospiti

cron