Valutazione 4.87/ 5 (100.00%) 5838 voti

Condividi:        

conversione video difficoltosa

Problemi di Codec - AC3, MPEG, DivX, Xvid...? Vuoi aiuto con la tua musica? Non sai come masterizzare i tuoi mp3? In questo forum tutte le risposte alle tue domande legali!

Moderatori: axelrox, m.paolo

conversione video difficoltosa

Postdi nikita75 » 16/03/16 22:04

Ho cercato di convertire questo video in . MOV , ma dopo la conversione vedo il video in dimensioni millimetriche - Tutto compresso -
ascolto l'audio perfettamente - idem in altri formati di compressione e codec -
utilizzo Formact Factory e Winavi per le conversioni

:?:


General
Complete name : F:\Torrent Toshiba\.........avi
Format : AVI
Format/Info : Audio Video Interleave
File size : 1.47 GiB
Duration : 1h 38mn
Overall bit rate : 2 143 Kbps
Movie name :
Writing application : VirtualDubMod 1.5.10.2 (build 2540/release)
Writing library : VirtualDubMod build 2540/release

Video
ID : 0
Format : MPEG-4 Visual
Format profile : Simple@L3
Format settings, BVOP : No
Format settings, QPel : No
Format settings, GMC : No warppoints
Format settings, Matrix : Default (H.263)
Codec ID : XVID
Codec ID/Hint : XviD
Duration : 1h 38mn
Bit rate : 1 233 Kbps
Width : 688 pixels
Height : 286 pixels
Display aspect ratio : 2.40:1
Frame rate : 23.976 fps
Color space : YUV
Chroma subsampling : 4:2:0
Bit depth : 8 bits
Scan type : Progressive
Compression mode : Lossy
Bits/(Pixel*Frame) : 0.261
Stream size : 866 MiB (58%)
Writing library : XviD 64

Audio #1
ID : 1
Format : AC-3
Format/Info : Audio Coding 3
Mode extension : CM (complete main)
Format settings, Endianness : Big
Codec ID : 2000
Duration : 1h 38mn
Bit rate mode : Constant
Bit rate : 448 Kbps
Channel(s) : 6 channels
Channel positions : Front: L C R, Side: L R, LFE
Sampling rate : 48.0 KHz
Bit depth : 16 bits
Compression mode : Lossy
Stream size : 315 MiB (21%)
Alignment : Split accross interleaves
Interleave, duration : 42 ms (1.00 video frame)
Interleave, preload duration : 500 ms

Audio #2
ID : 2
Format : AC-3
Format/Info : Audio Coding 3
Mode extension : CM (complete main)
Format settings, Endianness : Big
Codec ID : 2000
Duration : 1h 38mn
Bit rate mode : Constant
Bit rate : 448 Kbps
Channel(s) : 6 channels
Channel positions : Front: L C R, Side: L R, LFE
Sampling rate : 48.0 KHz
Bit depth : 16 bits
Compression mode : Lossy
Stream size : 315 MiB (21%)
Alignment : Split accross interleaves
Interleave, duration : 42 ms (1.00 video frame)
Interleave, preload duration : 500 ms
Avatar utente
nikita75
Utente Senior
 
Post: 4392
Iscritto il: 31/07/09 13:36

Sponsor
 

Re: conversione video difficoltosa

Postdi davide72 » 17/03/16 10:05

prova a salvarlo in HD MOV (H264) e impostare un frame rate a 29.976 fps
Avatar utente
davide72
Utente Senior
 
Post: 5602
Iscritto il: 10/06/14 22:01

Re: conversione video difficoltosa

Postdi nikita75 » 17/03/16 15:22

davide72 ha scritto:prova a salvarlo in HD MOV (H264) e impostare un frame rate a 29.976 fps

identico problema :neutral:
Avatar utente
nikita75
Utente Senior
 
Post: 4392
Iscritto il: 31/07/09 13:36

Re: conversione video difficoltosa

Postdi davide72 » 17/03/16 16:26

prova con un profilo per dispositivo , per es. apple ipad , quindi col codec mpeg4 /h264 (1280x720p) 30 fps
con il quick time dovresti riuscire a riprodurlo
Avatar utente
davide72
Utente Senior
 
Post: 5602
Iscritto il: 10/06/14 22:01

Re: conversione video difficoltosa

Postdi nikita75 » 17/03/16 23:47

nikita75 ha scritto:Format settings, BVOP : No


comparando con altri video questo settaggio è si

ho provato tutti i formati , ma sicuramente qualcosa non funziona nella decodifica di questo video e in ricodifica qualcosa va storto
Avatar utente
nikita75
Utente Senior
 
Post: 4392
Iscritto il: 31/07/09 13:36

Re: conversione video difficoltosa

Postdi davide72 » 18/03/16 10:21

se il video è stato creato cosi, cè poco da fare...
e poi non ho capito perchè devi convertirlo in mov , e con quale player o dispositivo?
Avatar utente
davide72
Utente Senior
 
Post: 5602
Iscritto il: 10/06/14 22:01

Re: conversione video difficoltosa

Postdi nikita75 » 18/03/16 11:02

risolto . il problema era nel decoder ,.--ho spuntato in winavi < apply to all < . conversione ok :!:

ho un player video che legge perfettamente il .mov , ma non i file audio ac3

Immagine

Immagine

Immagine
http://www.photo-host.org/

link diretto
http://www.photo-host.org/images/2016/03/18/zTGpcFS.png
Avatar utente
nikita75
Utente Senior
 
Post: 4392
Iscritto il: 31/07/09 13:36

Re: conversione video difficoltosa

Postdi davide72 » 18/03/16 11:18

ottimo, sarà di aiuto ad altri con lo stesso problema
Avatar utente
davide72
Utente Senior
 
Post: 5602
Iscritto il: 10/06/14 22:01


Torna a Audio/Video e masterizzazione


Topic correlati a "conversione video difficoltosa":


Chi c’è in linea

Visitano il forum: Nessuno e 2 ospiti