Valutazione 4.87/ 5 (100.00%) 5838 voti

Condividi:        

Squadrettamenti video mkv /avc codec con player 5k

Problemi di Codec - AC3, MPEG, DivX, Xvid...? Vuoi aiuto con la tua musica? Non sai come masterizzare i tuoi mp3? In questo forum tutte le risposte alle tue domande legali!

Moderatori: axelrox, m.paolo

Squadrettamenti video mkv /avc codec con player 5k

Postdi nikita75 » 11/02/16 12:19

Riscontro su questo file grossi problemi di visualizzazione..l'immagine si blocca frequentemente e l'immagine squadretta . utilizzo il 5kplayer . Nessun problema su altro tipo di file .
che player suggerite per questo tipo di file ^?

cosa suggerite :?:


General
Unique ID :
Complete name : F:\.....................mkv
Format : Matroska
Format version : Version 4 / Version 2
File size : 5.61 GiB
Duration : 1h 41mn
Overall bit rate : 7 910 Kbps
Movie name :
Encoded date : UTC 2016-01-02 14:43:29
Writing application : mkvmerge v8.3.0 ('Over the Horizon') 64bit
Writing library : libebml v1.3.1 + libmatroska v1.4.2
DURATION : 01:33:43.408000000
NUMBER_OF_FRAMES : 553
NUMBER_OF_BYTES : 14739
_STATISTICS_WRITING_APP : mkvmerge v8.3.0 ('Over the Horizon') 64bit
_STATISTICS_WRITING_DATE_UTC : 2016-01-02 14:43:29
_STATISTICS_TAGS : BPS DURATION NUMBER_OF_FRAMES NUMBER_OF_BYTES

Video
ID : 1
Format : AVC
Format/Info : Advanced Video Codec
Format profile : High@L4.1
Format settings, CABAC : Yes
Format settings, ReFrames : 5 frames
Codec ID : V_MPEG4/ISO/AVC
Duration : 1h 41mn
Bit rate : 6 632 Kbps
Width : 1 920 pixels
Height : 800 pixels
Display aspect ratio : 2.40:1
Frame rate mode : Constant
Frame rate : 24.000 fps
Color space : YUV
Chroma subsampling : 4:2:0
Bit depth : 8 bits
Scan type : Progressive
Bits/(Pixel*Frame) : 0.180
Stream size : 4.59 GiB (82%)
Writing library : x264 core 148 r2638 7599210
Encoding settings : cabac=1 / ref=5 / deblock=1:-1:-1 / analyse=0x3:0x113 / me=umh / subme=8 / psy=1 / psy_rd=1.00:0.15 / mixed_ref=1 / me_range=16 / chroma_me=1 / trellis=1 / 8x8dct=1 / cqm=0 / deadzone=21,11 / fast_pskip=1 / chroma_qp_offset=-3 / threads=6 / lookahead_threads=1 / sliced_threads=0 / nr=0 / decimate=1 / interlaced=0 / bluray_compat=0 / constrained_intra=0 / bframes=3 / b_pyramid=2 / b_adapt=2 / b_bias=0 / direct=3 / weightb=1 / open_gop=0 / weightp=2 / keyint=240 / keyint_min=24 / scenecut=40 / intra_refresh=0 / rc_lookahead=50 / rc=2pass / mbtree=1 / bitrate=6632 / ratetol=1.0 / qcomp=0.60 / qpmin=0 / qpmax=69 / qpstep=4 / cplxblur=20.0 / qblur=0.5 / vbv_maxrate=62500 / vbv_bufsize=78125 / nal_hrd=none / filler=0 / ip_ratio=1.40 / aq=1:1.00
Default : Yes
Forced : No

Audio #1
ID : 2
Format : AC-3
Format/Info : Audio Coding 3
Mode extension : CM (complete main)
Format settings, Endianness : Big
Codec ID : A_AC3
Duration : 1h 41mn
Bit rate mode : Constant
Bit rate : 640 Kbps
Channel(s) : 6 channels
Channel positions : Front: L C R, Side: L R, LFE
Sampling rate : 48.0 KHz
Bit depth : 16 bits
Compression mode : Lossy
Stream size : 465 MiB (8%)
Language : Italian
Default : Yes
Forced : No

Audio #2
ID : 3
Format : AC-3
Format/Info : Audio Coding 3
Mode extension : CM (complete main)
Format settings, Endianness : Big
Codec ID : A_AC3
Duration : 1h 41mn
Bit rate mode : Constant
Bit rate : 640 Kbps
Channel(s) : 6 channels
Channel positions : Front: L C R, Side: L R, LFE
Sampling rate : 48.0 KHz
Bit depth : 16 bits
Compression mode : Lossy
Stream size : 465 MiB (8%)
Language : English
Default : No
Forced : No

Text #1
ID : 4
Format : UTF-8
Codec ID : S_TEXT/UTF8
Codec ID/Info : UTF-8 Plain Text
Language : Italian
Default : No
Forced : No

Text #2
ID : 5
Format : UTF-8
Codec ID : S_TEXT/UTF8
Codec ID/Info : UTF-8 Plain Text
Language : English
Default : No
Forced : No

Menu
00:00:00.000 : en:Chapter 1
00:04:57.712 : en:Chapter 2
00:12:22.074 : en:Chapter 3
00:17:07.942 : en:Chapter 4
00:26:25.375 : en:Chapter 5
00:32:40.459 : en:Chapter 6
00:36:24.805 : en:Chapter 7
00:42:16.242 : en:Chapter 8
00:45:33.480 : en:Chapter 9
00:55:02.715 : en:Chapter 10
00:59:27.773 : en:Chapter 11
01:06:13.637 : en:Chapter 12
01:14:16.118 : en:Chapter 13
01:19:13.246 : en:Chapter 14
01:27:29.993 : en:Chapter 15
01:32:24.996 : en:Chapter 16

Immagine
free image hosting
Avatar utente
nikita75
Utente Senior
 
Post: 4387
Iscritto il: 31/07/09 13:36

Sponsor
 

Re: Squadrettamenti video mkv /avc codec con player 5k

Postdi nikita75 » 12/02/16 11:04

problema risolto utilizzando il pot player , immagine molto fluida , e non impegna molto le risorse ..light
Immagine
free image hosting
Avatar utente
nikita75
Utente Senior
 
Post: 4387
Iscritto il: 31/07/09 13:36

Re: Squadrettamenti video mkv /avc codec con player 5k

Postdi nikita75 » 12/02/16 11:15

Avatar utente
nikita75
Utente Senior
 
Post: 4387
Iscritto il: 31/07/09 13:36

Re: Squadrettamenti video mkv /avc codec con player 5k

Postdi nikita75 » 12/02/16 11:38

http://postimg.org/image/m9s3q8wet/


COSA STRANA , NELLO screen shot non riesco a far visualizzare lìimmagine interna del player ? cosa succede :?:
Avatar utente
nikita75
Utente Senior
 
Post: 4387
Iscritto il: 31/07/09 13:36



Torna a Audio/Video e masterizzazione


Topic correlati a "Squadrettamenti video mkv /avc codec con player 5k":


Chi c’è in linea

Visitano il forum: Nessuno e 3 ospiti