Valutazione 4.87/ 5 (100.00%) 5838 voti

Condividi:        

da Mp4 > mpeg Ps >a masterizzazione DVD

Problemi di Codec - AC3, MPEG, DivX, Xvid...? Vuoi aiuto con la tua musica? Non sai come masterizzare i tuoi mp3? In questo forum tutte le risposte alle tue domande legali!

Moderatori: axelrox, m.paolo

da Mp4 > mpeg Ps >a masterizzazione DVD

Postdi nikita75 » 17/05/15 21:47

:) ciao ! Ho un file mp4 con queste caratteristiche

Se devo convertirlo in formato DVD ( lettore da tavolo ) e poi masterizzarlo ,è possibile convertirlo in file mpeg ps ? con quale bit rate ,e formato ?cosa mi suggerite per non perdere qualita' ??

Complete name : C:\Documents and Settings\cassiopea \Desktop\ moda sotto il castello 1 80.MP4
Format : MPEG-4
Format profile : Sony PSP
Codec ID : MSNV
File size : 366 MiB
Duration : 17mn 3s
Overall bit rate mode : Variable


Overall bit rate : 2 999 Kbps
Encoded date : UTC 2015-05-15 18:43:51
Tagged date : UTC 2015-05-15 18:43:51

Video
ID : 1
Format : AVC
Format/Info : Advanced Video Codec
Format profile : Main@L4.0
Format settings, CABAC : Yes
Format settings, ReFrames : 2 frames
Format settings, GOP : M=1, N=6
Codec ID : avc1
Codec ID/Info : Advanced Video Coding
Duration : 17mn 3s
Bit rate mode : Variable
Bit rate : 2 869 Kbps
Maximum bit rate : 16.0 Mbps
Width : 1 280 pixels
Height : 720 pixels
Display aspect ratio : 16:9
Frame rate mode : Constant
Frame rate : 25.000 fps
Standard : PAL
Color space : YUV
Chroma subsampling : 4:2:0
Bit depth : 8 bits
Scan type : Progressive
Bits/(Pixel*Frame) : 0.125
Stream size : 350 MiB (96%)
Encoded date : UTC 2015-05-15 18:43:51
Tagged date : UTC 2015-05-15 18:43:51
Color primaries : BT.709
Transfer characteristics : IEC 61966-2-4
Matrix coefficients : BT.709

Audio
ID : 2
Format : AAC
Format/Info : Advanced Audio Codec
Format profile : LC
Codec ID : 40
Duration : 17mn 3s
Bit rate mode : Constant
Bit rate : 128 Kbps
Channel(s) : 2 channels
Channel positions : Front: L R
Sampling rate : 48.0 KHz
Compression mode : Lossy
Delay relative to video : 40ms
Stream size : 15.6 MiB (4%)
Encoded date : UTC 2015-05-15 18:43:51
Tagged date : UTC 2015-05-15 18:43:51
Avatar utente
nikita75
Utente Senior
 
Post: 4389
Iscritto il: 31/07/09 13:36

Sponsor
 

Re: da Mp4 > mpeg Ps >a masterizzazione DVD

Postdi Dylan666 » 18/05/15 15:57

Il formato MPEG PS è proprio il formato DVD:
http://en.wikipedia.org/wiki/MPEG_program_stream
http://www.terratec.it/tutorials/differ ... peg-ts.pdf

E comunque essendo il DVD un formato standard non è che puoi sceglierti in bitrate più di tanto, al massimo arrivi a Max 9.800 kbit/s
http://it.wikipedia.org/wiki/DVD-Video# ... e_tecniche
Avatar utente
Dylan666
Moderatore
 
Post: 38040
Iscritto il: 18/11/03 16:46

Re: da Mp4 > mpeg Ps >a masterizzazione DVD

Postdi nikita75 » 19/05/15 22:28

grazie tante Dylan666 , ho letto il tutorial e masterizzato il Dvd-
Il mio lettore da tavolo LG non ha avuto nessun problema a leggerlo .
720 x 576 è il rapporto 4;3 usato per la risoluzione! Il bit rate usato e sui 3000Kbps.

eccellente risultato ! masterizzato con IMG Burn ...qualche tempo fa suggeritomi da Quizface
Avatar utente
nikita75
Utente Senior
 
Post: 4389
Iscritto il: 31/07/09 13:36


Torna a Audio/Video e masterizzazione


Topic correlati a "da Mp4 > mpeg Ps >a masterizzazione DVD":


Chi c’è in linea

Visitano il forum: Nessuno e 8 ospiti