Valutazione 4.87/ 5 (100.00%) 5838 voti

Condividi:        

File ,avi - impossibile aprirlo -

Problemi di Codec - AC3, MPEG, DivX, Xvid...? Vuoi aiuto con la tua musica? Non sai come masterizzare i tuoi mp3? In questo forum tutte le risposte alle tue domande legali!

Moderatori: axelrox, m.paolo

File ,avi - impossibile aprirlo -

Postdi nikita75 » 06/01/15 20:01

Ho difficolta' ad aprire questo file . Media info mi da queste informazione .
notate qualcosa che mi sfugge :?:

General
Complete name : F:\,,,,,,,,,,,,,,,,,,,,,,,,2014.avi
Format : AVI
Format/Info : Audio Video Interleave
File size : 800 MiB
Duration : 1h 39mn
Overall bit rate : 1 120 Kbps
Writing application : VirtualDubMod 1.5.10.3 | www.virtualdub-fr.org || (build 2550/release)
Writing library : VirtualDubMod build 2550/release

Video
ID : 0
Format : MPEG-4 Visual
Codec ID : XVID
Codec ID/Hint : XviD
Duration : 1h 39mn
Bit rate : 618 Kbps
Width : 720 pixels
Height : 400 pixels
Display aspect ratio : 16:9
Frame rate : 23.976 fps
Color space : YUV
Chroma subsampling : 4:2:0
Compression mode : Lossy
Bits/(Pixel*Frame) : 0.090
Stream size : 442 MiB (55%)

Audio
ID : 1
Format : AC-3
Format/Info : Audio Coding 3
Codec ID : 2000
Duration : 1h 39mn
Bit rate mode : Constant
Bit rate : 448 Kbps
Channel(s) : 6 channels
Sampling rate : 48.0 KHz
Compression mode : Lossy
Stream size : 320 MiB (40%)
Alignment : Aligned on interleaves
Avatar utente
nikita75
Utente Senior
 
Post: 4389
Iscritto il: 31/07/09 13:36

Sponsor
 

Re: File ,avi - impossibile aprirlo -

Postdi Dylan666 » 07/01/15 09:56

Avatar utente
Dylan666
Moderatore
 
Post: 38040
Iscritto il: 18/11/03 16:46

Re: File ,avi - impossibile aprirlo -

Postdi nikita75 » 07/01/15 10:39

certo, ho il codec xvid, nel mega codec pack. apro altri movie con lo stesso codec

Video
ID : 0
Format : MPEG-4 Visual
Format profile : Simple@L5
Format settings, BVOP : No
Format settings, QPel : No
Format settings, GMC : No warppoints
Format settings, Matrix : Default (H.263)
Codec ID : XVID
Codec ID/Hint : XviD
Duration : 1h 34mn
Bit rate : 1 426 Kbps
Width : 720 pixels
Height : 302 pixels
Display aspect ratio : 2.40:1
Original display aspect ratio : 2.40:1
Frame rate : 23.976 fps
Color space : YUV
Chroma subsampling : 4:2:0
Bit depth : 8 bits
Scan type : Progressive
Compression mode : Lossy
Bits/(Pixel*Frame) : 0.273
Stream size : 967 MiB (87%)
Title : ,,,,,,,,,,,,,,,,,,,,,,,,,,,,,,,.XviD.MP3-
Writing library : Lavc56.19.100
Avatar utente
nikita75
Utente Senior
 
Post: 4389
Iscritto il: 31/07/09 13:36

Re: File ,avi - impossibile aprirlo -

Postdi Dylan666 » 07/01/15 10:59

con che player lo apri?
Quali difficoltà hai , schermo nero o messaggio di errore?
Avatar utente
Dylan666
Moderatore
 
Post: 38040
Iscritto il: 18/11/03 16:46

Re: File ,avi - impossibile aprirlo -

Postdi nikita75 » 07/01/15 13:20

schermo nero .
apro com win media player -- e media player classic
Avatar utente
nikita75
Utente Senior
 
Post: 4389
Iscritto il: 31/07/09 13:36

Re: File ,avi - impossibile aprirlo -

Postdi Dylan666 » 07/01/15 14:44

l'audio si sente?
La barra del porgresso scorre come se il filmato stesse andando in riproduzione?
Avatar utente
Dylan666
Moderatore
 
Post: 38040
Iscritto il: 18/11/03 16:46

Re: File ,avi - impossibile aprirlo -

Postdi davide72 » 07/01/15 16:45

prova anche nelle opzioni di mpc , riproduzione > output > e dalla tendina video direct show, seleziona altre modalità fin quando non compare tutte le spunte verdi
Avatar utente
davide72
Utente Senior
 
Post: 5588
Iscritto il: 10/06/14 22:01

Re: File ,avi - impossibile aprirlo -

Postdi nikita75 » 07/01/15 17:06

Dylan666 ha scritto:l'audio si sente?
La barra del porgresso scorre come se il filmato stesse andando in riproduzione?

nessun audio . barra contaminuti ferma a zero
Avatar utente
nikita75
Utente Senior
 
Post: 4389
Iscritto il: 31/07/09 13:36

Re: File ,avi - impossibile aprirlo -

Postdi nikita75 » 07/01/15 17:12

davide72 ha scritto:prova anche nelle opzioni di mpc , riproduzione > output > e dalla tendina video direct show, seleziona altre modalità fin quando non compare tutte le spunte verdi


provo ....
Avatar utente
nikita75
Utente Senior
 
Post: 4389
Iscritto il: 31/07/09 13:36

Re: File ,avi - impossibile aprirlo -

Postdi Dylan666 » 07/01/15 17:58

Prova col GSPOT (e i tasti 1 e 2 nel riquadro MS A/V in basso) o con AVIcodec a vedere se i codec che hai risultano compatibili
https://www.raymond.cc/blog/determine-a ... ed-movies/
Avatar utente
Dylan666
Moderatore
 
Post: 38040
Iscritto il: 18/11/03 16:46

Re: File ,avi - impossibile aprirlo -

Postdi nikita75 » 08/01/15 10:18

ok Dylan provo con G spot .
@davide ..conosco poco mpc .controllo nelle opzioni.
Avatar utente
nikita75
Utente Senior
 
Post: 4389
Iscritto il: 31/07/09 13:36

Re: File ,avi - impossibile aprirlo -

Postdi nikita75 » 11/01/15 18:38

ho scaricato il Total codec pack -
riesco ad aprire il file
http://total-codec-pack.software.informer.com/
Avatar utente
nikita75
Utente Senior
 
Post: 4389
Iscritto il: 31/07/09 13:36


Torna a Audio/Video e masterizzazione


Topic correlati a "File ,avi - impossibile aprirlo -":


Chi c’è in linea

Visitano il forum: Nessuno e 6 ospiti