Valutazione 4.87/ 5 (100.00%) 5838 voti

Condividi:        

file.ts MPEG da Decoder digitale terrestre

Problemi di Codec - AC3, MPEG, DivX, Xvid...? Vuoi aiuto con la tua musica? Non sai come masterizzare i tuoi mp3? In questo forum tutte le risposte alle tue domande legali!

Moderatori: axelrox, m.paolo

file.ts MPEG da Decoder digitale terrestre

Postdi nikita75 » 27/06/14 09:33

:) Devo pubblicare questo file video ( registrato da RAI sport 1 ) su FACEBOOK ,ma riscontro grandissima difficolta' nella pubblicazione ....durante l'upload va in blocco la pagina

Cosa mi suggerite :?:

General
ID : 2 (0x2)
Complete name : C:\Documents and Settings\Nikita75 \Desktop\000.ts
Format : MPEG-TS
File size : 486 MiB
Duration : 13mn 53s
Overall bit rate mode : Variable
Overall bit rate : 4 894 Kbps
Network name : Rai
Original network name : Eutelsat Satellite System at 13'E

Video
ID : 232 (0xE8)
Menu ID : 8562 (0x2172)
Format : MPEG Video
Format version : Version 2
Format profile : Main@Main
Format settings, BVOP : Yes
Format settings, Matrix : Custom
Format settings, GOP : M=3, N=12
Codec ID : 2
Duration : 13mn 52s
Bit rate mode : Variable
Bit rate : 4 458 Kbps
Maximum bit rate : 10 000 Kbps
Width : 704 pixels
Height : 576 pixels
Display aspect ratio : 16:9
Frame rate : 25.000 fps
Standard : PAL
Color space : YUV
Chroma subsampling : 4:2:0
Bit depth : 8 bits
Scan type : Interlaced
Scan order : Top Field First
Compression mode : Lossy
Bits/(Pixel*Frame) : 0.440
Time code of first frame : 20:48:47:00
Time code source : Group of pictures header
Stream size : 442 MiB (91%)

Audio
ID : 242 (0xF2)
Menu ID : 8562 (0x2172)
Format : MPEG Audio
Format version : Version 1
Format profile : Layer 2
Codec ID : 4
Duration : 13mn 52s
Bit rate mode : Constant
Bit rate : 192 Kbps
Channel(s) : 2 channels
Sampling rate : 48.0 KHz
Compression mode : Lossy
Delay relative to video : -218ms
Stream size : 19.1 MiB (4%)
Language : Italian

Text #1
ID : 581 (0x245)-100
Menu ID : 8562 (0x2172)
Format : Teletext
Language : Italian

Text #2
ID : 581 (0x245)-777
Menu ID : 8562 (0x2172)
Format : Teletext Subtitle
Language : Italian

Text #3
ID : 581 (0x245)-778
Menu ID : 8562 (0x2172)
Format : Teletext Subtitle
Language : English

Menu
ID : 222 (0xDE)
Menu ID : 8562 (0x2172)
Duration : 13mn 53s
List : 232 (0xE8) (MPEG Video) / 242 (0xF2) (MPEG Audio, Italian) / 581 (0x245) () / 2009 (0x7D9) () / 3001 (0xBB9) ()
Language : / Italian
Service name : Rai Sport 2
Service provider : Rai
Service type : digital television
UTC 2014-06-27 06:00:00 : it:Danza Sportiva: San Marino Dance Sport GP 2a giornata / it:Danza Sportiva: San Marino Dance Sport GP 2a giornata / / / 02:15:00 / Running
UTC 2014-06-27 08:15:00 : it:Radiocorsa / it:Radiocorsa / / / 01:05:00 / Not running
Avatar utente
nikita75
Utente Senior
 
Post: 4389
Iscritto il: 31/07/09 13:36

Sponsor
 

Re: file.ts MPEG da Decoder digitale terrestre

Postdi davide72 » 27/06/14 15:35

che browser stai usando? meglio se usi chrome , prova anche a disattivare provvisoriamente l' AV
Avatar utente
davide72
Utente Senior
 
Post: 5583
Iscritto il: 10/06/14 22:01

Re: file.ts MPEG da Decoder digitale terrestre

Postdi nikita75 » 27/06/14 16:44

ciao davide72 . :)

Con WINAVI ALL IN ONE ho convertito il video MPEG TS in mp4 con codec H264 (AVC ) e ho abbassato il bit rate a 2400 kbps-
http://en.wikipedia.org/wiki/MPEG_transport_stream
:mmmh: mentre settavo il bit rate , vedevo il file d'uscita calcolato da Winavi che >> cresceva all'inverosimile -
il fle MPEG TS con un bit- rate a 2400 kbps >> diventava un file da 4 GB :mmmh: :mmmh: :mmmh: problema non reale .
Il problema sicuramente è dovuto al TS ( transport stream ) del video MPEG usato in TV per trasmettere il Video che falsa involontariamente il calcolo del file in uscita.

A conversione riuscita il file MPEG TS da 456 MB , diventa un file mp4 da 252 MByte ;)

General
Complete name : C:\Documents and Settings\nikita75\Documenti\WINAVI TEMP\WDSF RAI SPORT 2 .mp4
Format : MPEG-4
Format profile : Base Media
Codec ID : isom
File size : 252 MiB
Duration : 13mn 53s
Overall bit rate mode : Variable
Overall bit rate : 2 540 Kbps
Writing application : Lavf52.57.1

Video
ID : 1
Format : AVC
Format/Info : Advanced Video Codec
Format profile : Baseline@L3.0
Format settings, CABAC : No
Format settings, ReFrames : 2 frames
Format settings, GOP : M=1, N=13
Codec ID : avc1
Codec ID/Info : Advanced Video Coding
Duration : 13mn 52s
Bit rate : 2 407 Kbps
Width : 704 pixels
Height : 576 pixels
Display aspect ratio : 1.222
Frame rate mode : Constant
Frame rate : 25.000 fps
Standard : PAL
Color space : YUV
Chroma subsampling : 4:2:0
Bit depth : 8 bits
Scan type : Progressive
Bits/(Pixel*Frame) : 0.237
Stream size : 239 MiB (95%)

Audio
ID : 2
Format : AAC
Format/Info : Advanced Audio Codec
Format profile : LC
Codec ID : 40
Duration : 13mn 53s
Bit rate mode : Variable
Bit rate : 128 Kbps
Channel(s) : 2 channels
Channel positions : Front: L R
Sampling rate : 44.1 KHz
Compression mode : Lossy
Stream size : 12.7 MiB (5%)

TUTTO OK . Video pubblicato su facebook
Avatar utente
nikita75
Utente Senior
 
Post: 4389
Iscritto il: 31/07/09 13:36

Re: file.ts MPEG da Decoder digitale terrestre

Postdi davide72 » 27/06/14 17:06

complimenti!! non sapevo di questi problemi col mpeg.ts , almeno stando alla lista https://it-it.facebook.com/help/218673814818907 dei formati supportati, cmq bene che hai risolto.
ciao
Avatar utente
davide72
Utente Senior
 
Post: 5583
Iscritto il: 10/06/14 22:01

Re: file.ts MPEG da Decoder digitale terrestre

Postdi nikita75 » 27/06/14 17:29

davide72 ha scritto:complimenti!! non sapevo di questi problemi col mpeg.ts , almeno stando alla lista https://it-it.facebook.com/help/218673814818907 dei formati supportati, cmq bene che hai risolto.
ciao


è la prima volta che carico su FBook un video registrato dalla USB del Decoder digitale Terrestre.
il File mpeg.ts è di altissima qualita ma pesantissimo da caricare >> meglio alleggerirlo e pulirlo dal TS .

Facebook , per il video ,, tra i suoi preferiti ha in cima alla lista MPEG4 ( mp4 ) con una risoluzione maxima di 1280x720 .massima durata 20 minuti - dimensioni file max 1 GigaB ...ma dalla lista si vede che accetta tutti i formati :o ;)

Ciao
Avatar utente
nikita75
Utente Senior
 
Post: 4389
Iscritto il: 31/07/09 13:36

Re: file.ts MPEG da Decoder digitale terrestre

Postdi davide72 » 27/06/14 18:14

si infatti.... consigliano l' mp4 con quelle proprietà , mà il problema del crash durante il caricamento del mpeg.ts , sarebbe da ricercare nel registro eventi di windows almeno da capire la causa, poi certo....anche le carattestiche hw , velocità di cpu, ram disponibile, sono tutti fattori da tener in considerazione
Avatar utente
davide72
Utente Senior
 
Post: 5583
Iscritto il: 10/06/14 22:01

Re: file.ts MPEG da Decoder digitale terrestre

Postdi nikita75 » 28/06/14 08:34

davide72 ha scritto: il problema del crash durante il caricamento del mpeg.ts


nessun crash,,,ma solo il blocco del browser ...la pagina si era bloccata
Avatar utente
nikita75
Utente Senior
 
Post: 4389
Iscritto il: 31/07/09 13:36

Re: file.ts MPEG da Decoder digitale terrestre

Postdi davide72 » 28/06/14 09:01

avevi provato a caricare mpeg.ts su siti di fileshare ? ti permette fino a 1gb (dal momento che su FB non è possibile) per vedere se persiste il problema del blocco della pagina web.
che browser utilizzi?
Avatar utente
davide72
Utente Senior
 
Post: 5583
Iscritto il: 10/06/14 22:01

Re: file.ts MPEG da Decoder digitale terrestre

Postdi nikita75 » 28/06/14 12:39

chrome ...ma adesso non riscontro nessun problema !
uso WE TRANSFER ..tutto ok con tutti i browser ( explorer firefox chrome ::))
Avatar utente
nikita75
Utente Senior
 
Post: 4389
Iscritto il: 31/07/09 13:36

Re: file.ts MPEG da Decoder digitale terrestre

Postdi nikita75 » 09/07/14 10:58

registrazione effettuata dal decoder in MPEG PS
non contiene dati ma la qualita' è sempre eccellente!

General
Complete name : E:\RECORD\2014-07-08.20.15.08-Rai 4-82\000.mpg
Format : MPEG-PS
File size : 1.77 GiB
Duration : 59mn 59s
Overall bit rate mode : Variable
Overall bit rate : 4 214 Kbps

Video
ID : 224 (0xE0)
Format : MPEG Video
Format version : Version 2
Format profile : Main@Main
Format settings, BVOP : Yes
Format settings, Matrix : Custom
Format settings, GOP : M=3, N=12
Duration : 59mn 59s
Bit rate mode : Variable
Bit rate : 3 938 Kbps
Maximum bit rate : 10 000 Kbps
Width : 704 pixels
Height : 576 pixels
Display aspect ratio : 16:9
Active Format Description : Full frame 16:9 image
Frame rate : 25.000 fps
Standard : PAL
Color space : YUV
Chroma subsampling : 4:2:0
Bit depth : 8 bits
Scan type : Interlaced
Scan order : Top Field First
Compression mode : Lossy
Bits/(Pixel*Frame) : 0.388
Time code of first frame : 07:19:36:21
Time code source : Group of pictures header
Stream size : 1.65 GiB (93%)

Audio
ID : 192 (0xC0)
Format : MPEG Audio
Format version : Version 1
Format profile : Layer 2
Duration : 59mn 58s
Bit rate mode : Constant
Bit rate : 192 Kbps
Channel(s) : 2 channels
Sampling rate : 48.0 KHz
Compression mode : Lossy
Delay relative to video : -189ms
Stream size : 82.4 MiB (5%)
Avatar utente
nikita75
Utente Senior
 
Post: 4389
Iscritto il: 31/07/09 13:36


Torna a Audio/Video e masterizzazione


Topic correlati a "file.ts MPEG da Decoder digitale terrestre":


Chi c’è in linea

Visitano il forum: Nessuno e 7 ospiti