Valutazione 4.87/ 5 (100.00%) 5838 voti

Condividi:        

USB player decoder Strong DTT non legge mp4

Problemi di Codec - AC3, MPEG, DivX, Xvid...? Vuoi aiuto con la tua musica? Non sai come masterizzare i tuoi mp3? In questo forum tutte le risposte alle tue domande legali!

Moderatori: axelrox, m.paolo

USB player decoder Strong DTT non legge mp4

Postdi nikita75 » 02/05/14 09:48

La mia usb player del decoder digitale terrestre non legge questo file .- la riproduzione si avvia ma è bloccata sul primo secondo di riproduzione !visualizzo questo file video perfettamente con il pc .

Cosa suggerite ?? Perchè il player usb >> è ostile verso questo file ?? >> ...in generale visualizzo tutti i formati ...
di tutto e di piu' :
http://www.strong.tv/it/products/receiv ... n/srt-8108

------------------------------------------------------------------------------------------------
General
Complete name : D:\
Format : AVI
Format/Info : Audio Video Interleave
File size : 1.50 GiB
Duration : 2h 11mn
Overall bit rate : 1 636 Kbps
Writing library : VirtualDub build 35491/release

Video
ID : 0
Format : MPEG-4 Visual
Format profile : Advanced Simple@L5
Format settings, BVOP : 2
Format settings, QPel : No
Format settings, GMC : No warppoints
Format settings, Matrix : Default (H.263)
Muxing mode : Packed bitstream
Codec ID : XVID
Codec ID/Hint : XviD
Duration : 2h 11mn
Bit rate : 1 495 Kbps
Width : 720 pixels
Height : 296 pixels
Display aspect ratio : 2.40:1

Frame rate : 23.976 fps
Color space : YUV
Chroma subsampling : 4:2:0
Bit depth : 8 bits
Scan type : Progressive
Compression mode : Lossy
Bits/(Pixel*Frame) : 0.293
Stream size : 1.37 GiB (91%)
Writing library : XviD 64

Audio
ID : 1
Format : MPEG Audio
Format version : Version 1
Format profile : Layer 3
Mode : Joint stereo
Mode extension : MS Stereo
Codec ID : 55
Codec ID/Hint : MP3
Duration : 2h 11mn
Bit rate mode : Constant
Bit rate : 128 Kbps
Channel(s) : 2 channels
Sampling rate : 48.0 KHz
Compression mode : Lossy
Stream size : 121 MiB (8%)
Alignment : Split accross interleaves
Interleave, duration : 24 ms (0.58 video frame)
Writing library : LAME3.98.2
Avatar utente
nikita75
Utente Senior
 
Post: 4387
Iscritto il: 31/07/09 13:36

Sponsor
 

Re: USB player decoder Strong DTT non legge mp4

Postdi nikita75 » 02/05/14 10:38

:mmmh: nesssun problema per leggere questo tipo di file

General
Complete name : E:\................avi
Format : AVI
Format/Info : Audio Video Interleave
File size : 1.68 GiB
Duration : 1h 58mn
Overall bit rate : 2 030 Kbps
Writing library : VirtualDub build 0/release

Video
ID : 0
Format : MPEG-4 Visual
Format profile : Advanced Simple@L5
Format settings, BVOP : 2
Format settings, QPel : No
Format settings, GMC : No warppoints
Format settings, Matrix : Custom
Codec ID : XVID
Codec ID/Hint : XviD
Duration : 1h 58mn
Bit rate : 1 889 Kbps
Width : 720 pixels
Height : 304 pixels
Display aspect ratio : 2.35:1
Frame rate : 23.976 fps
Color space : YUV
Chroma subsampling : 4:2:0
Bit depth : 8 bits
Scan type : Progressive
Compression mode : Lossy
Bits/(Pixel*Frame) : 0.360
Stream size : 1.57 GiB (93%)
Writing library : XviD 1.2.1 (UTC 2008-12-04)

Audio
ID : 1
Format : MPEG Audio
Format version : Version 1
Format profile : Layer 3
Mode : Joint stereo
Codec ID : 55
Codec ID/Hint : MP3
Duration : 1h 58mn
Bit rate mode : Constant
Bit rate : 128 Kbps
Channel(s) : 2 channels
Sampling rate : 48.0 KHz
Compression mode : Lossy
Stream size : 109 MiB (6%)
Alignment : Aligned on interleaves
Interleave, duration : 24 ms (0.58 video frame)
Interleave, preload duration : 480 ms
Avatar utente
nikita75
Utente Senior
 
Post: 4387
Iscritto il: 31/07/09 13:36

Re: USB player decoder Strong DTT non legge mp4

Postdi news » 02/05/14 13:20

Prova ad intervenire sul "packed bitstream"
http://www.videohelp.com/tools/MPEG4-Modifier

saluti
news
Utente Junior
 
Post: 35
Iscritto il: 02/01/12 16:13

Re: USB player decoder Strong DTT non legge mp4

Postdi news » 02/05/14 18:20

In alternativa caricalo con AVIDEMUX , se chiede di indicizzare gli indici ,accetti e salvi
saluti
news
Utente Junior
 
Post: 35
Iscritto il: 02/01/12 16:13

Re: USB player decoder Strong DTT non legge mp4

Postdi quizface » 02/05/14 18:49

e' sicuramente il Packed bitstream che gli da fastidio, toglilo
Se non siete sicuri di quello che scrivete, non scrivete niente, nessuno vi obbliga ed eviterete di confondere chi gia' e' confuso. Ciao..ciao

Immagine
Avatar utente
quizface
Utente Senior
 
Post: 14160
Iscritto il: 03/10/04 00:36

Re: USB player decoder Strong DTT non legge mp4

Postdi nikita75 » 02/05/14 19:47

grazie Quizface - grazie news
provo ad effettuare i vostri suggerimenti ........ ;)
Avatar utente
nikita75
Utente Senior
 
Post: 4387
Iscritto il: 31/07/09 13:36

Re: USB player decoder Strong DTT non legge mp4

Postdi nikita75 » 04/05/14 18:51

quizface ha scritto:e' sicuramente il Packed bitstream che gli da fastidio, toglilo


news ha scritto:Prova ad intervenire sul "packed bitstream"
http://www.videohelp.com/tools/MPEG4-Modifier

saluti


:) ha funzionato :)usando Mpeg4 Modifier ,eliminando il Packed Bitstream riesco perfettamente a vedere il file .mp4 nel decoder DTT

:)
Avatar utente
nikita75
Utente Senior
 
Post: 4387
Iscritto il: 31/07/09 13:36

Re: USB player decoder Strong DTT non legge mp4

Postdi nikita75 » 04/05/14 20:33

....provando anche a ricodificare ( test ) una piccola parte del video originale in AVC ( H264 )( utilizzo WINAVI ALL IN ONE ), riproduco perfettamente il file dal player USB del decoder DTT . :)

General
Complete name : E:\,,,.......mp4
Format : MPEG-4
Format profile : Base Media
Codec ID : isom
File size : 89.5 MiB
Duration : 18mn 31s
Overall bit rate mode : Variable
Overall bit rate : 675 Kbps
Writing application : Lavf52.57.1

Video
ID : 1
Format : AVC
Format/Info : Advanced Video Codec
Format profile : Baseline@L3.0
Format settings, CABAC : No
Format settings, ReFrames : 2 frames
Format settings, GOP : M=1, N=13
Codec ID : avc1
Codec ID/Info : Advanced Video Coding
Duration : 18mn 30s
Bit rate : 506 Kbps
Width : 720 pixels
Height : 296 pixels
Display aspect ratio : 2.40:1
Frame rate mode : Constant
Frame rate : 23.976 fps
Color space : YUV
Chroma subsampling : 4:2:0
Bit depth : 8 bits
Scan type : Progressive
Bits/(Pixel*Frame) : 0.099
Stream size : 66.9 MiB (75%)

Audio
ID : 2
Format : AAC
Format/Info : Advanced Audio Codec
Format profile : LC
Codec ID : 40
Duration : 18mn 31s
Bit rate mode : Variable
Bit rate : 165 Kbps
Channel(s) : 2 channels
Channel positions : Front: L R
Sampling rate : 48.0 KHz
Compression mode : Lossy
Stream size : 21.9 MiB (24%)

http://www.winavi.com/
Avatar utente
nikita75
Utente Senior
 
Post: 4387
Iscritto il: 31/07/09 13:36


Torna a Audio/Video e masterizzazione


Topic correlati a "USB player decoder Strong DTT non legge mp4":


Chi c’è in linea

Visitano il forum: Nessuno e 1 ospite