Valutazione 4.87/ 5 (100.00%) 5838 voti

Condividi:        

Conversione video FULL HD

Hai problemi con i file Zip, vuoi formattare l'HD, non sai come funziona FireFox? O magari ti serve proprio quel programmino di cui non ricordi il nome! Ecco il forum dove poter risolvere i tuoi problemi.

Moderatori: Dylan666, hydra, gahan

Conversione video FULL HD

Postdi nikita75 » 26/08/17 12:05

Quale software VIDEO Totalmente FREE consigliate per convertire un video FULL HD con le caratteristiche di media info in mp4 ( >1280x 720 ) con una ottima velocita' :roll: di Conversione :?: - verificato- :)

possibilità di pubblicazione you tube e facebook

General
Complete name : H:\m.................\FULVIO1.MOV
Format : MPEG-4
Format profile : QuickTime
Codec ID : qt 2007.09 (qt /niko)
File size : 1.76 GiB
Duration : 11 min 38 s
Overall bit rate : 21.6 Mb/s
Encoded date : UTC 2017-08-24 22:55:36
Tagged date : UTC 2017-08-24 22:55:36
NCDT : NCTG

Video
ID : 1
Format : AVC
Format/Info : Advanced Video Codec
Format profile : High@L4
Format settings, CABAC : Yes
Format settings, RefFrames : 2 frames
Format settings, GOP : M=3, N=12
Codec ID : avc1
Codec ID/Info : Advanced Video Coding
Duration : 11 min 38 s
Bit rate : 20.1 Mb/s
Width : 1 920 pixels
Height : 1 080 pixels

Display aspect ratio : 16:9
Frame rate mode : Constant
Frame rate : 25.000 FPS
Color space : YUV
Chroma subsampling : 4:2:0
Bit depth : 8 bits
Scan type : Progressive
Bits/(Pixel*Frame) : 0.387
Stream size : 1.63 GiB (93%)
Language : English
Encoded date : UTC 2017-08-24 22:55:36
Tagged date : UTC 2017-08-24 22:55:36
Color range : Full
Color primaries : BT.709
Matrix coefficients : BT.601
colour_primaries_Original : BT.709
transfer_characteristics_Or : BT.470 System M
matrix_coefficients_Origina : BT.601

Audio
ID : 2
Format : PCM
Format settings, Endianness : Little
Format settings, Sign : Signed
Codec ID : sowt
Duration : 11 min 38 s
Bit rate mode : Constant
Bit rate : 1 536 kb/s
Channel(s) : 2 channels
Channel positions : Front: L R
Sampling rate : 48.0 kHz
Bit depth : 16 bits
Stream size : 128 MiB (7%)
Language : English
Encoded date : UTC 2017-08-24 22:55:36
Tagged date : UTC 2017-08-24 22:55:36
Avatar utente
nikita75
Utente Senior
 
Post: 4912
Iscritto il: 31/07/09 13:36
Località: Alberobello (Bari )

Sponsor
 

Re: Conversione video FULL HD

Postdi fax71ita » 02/09/17 10:07

Ciao
Hai già provato con freemake video converter?
Immagine
Avatar utente
fax71ita
Utente Senior
 
Post: 1689
Iscritto il: 20/03/15 10:43
Località: Torino

Re: Conversione video FULL HD

Postdi nikita75 » 02/09/17 15:35

Ciao fax71ita , ho provato con il freemake video converter , ma sul mio pc la CPU si inchioda al 98--100% ....la conversione è lentissima ....
Avatar utente
nikita75
Utente Senior
 
Post: 4912
Iscritto il: 31/07/09 13:36
Località: Alberobello (Bari )

Re: Conversione video FULL HD

Postdi quizface » 02/09/17 16:44

nikita75 ha scritto:Ciao fax71ita , ho provato con il freemake video converter , ma sul mio pc la CPU si inchioda al 98--100% ....la conversione è lentissima ....


Questo e' un altro problema, per fare conversioni devi avere un minimo di potenza.
Che computer hai?
Se non siete sicuri di quello che scrivete, non scrivete niente, nessuno vi obbliga ed eviterete di confondere chi gia' e' confuso. Ciao..ciao
Avatar utente
quizface
Utente Senior
 
Post: 14903
Iscritto il: 03/10/04 00:36

Re: Conversione video FULL HD

Postdi nikita75 » 03/09/17 14:11

Ciao Quizface , il mio pc Compaq con la CPU AMD da 1 ghz e 4 giga di Ram .

ieri ho usato una versione trial del WINX HD converter è ho notato che assorbe meno risorse ! sono riuscito a fare una conversione in mp4 di un video Ful HD ....chiudendo tutte le applicazioni !
https://www.winxdvd.com/hd-video-converter-deluxe/

Operating System
Windows 7 Professional 64-bit SP1
AMD E1-2100 54 °C
Kabini 28nm Technology
RAM
4,00GB Single-Channel DDR3 @ 665MHz (9-9-10-24)
Motherboard
Hewlett-Packard 21F7 (Socket FT1) 53 °C
Graphics
Monitor generico Plug and Play (1366x768@60Hz)
512MB ATI AMD Radeon HD 8210 (HP) 54 °C
Storage
465GB Seagate ST500LT012-1DG142 ATA Device (SATA) 38 °C
1863GB TOSHIBA External USB 3.0 USB Device (USB)
931GB Mass Storage Device USB Device (USB (SATA)) 43 °C
Optical Drives
hp DVDRW SU208FB ATA Device
Avatar utente
nikita75
Utente Senior
 
Post: 4912
Iscritto il: 31/07/09 13:36
Località: Alberobello (Bari )

Re: Conversione video FULL HD

Postdi quizface » 03/09/17 14:53

ma quello e' a pagamento, tu hai chiesto "Totalmente FREE"
Se non siete sicuri di quello che scrivete, non scrivete niente, nessuno vi obbliga ed eviterete di confondere chi gia' e' confuso. Ciao..ciao
Avatar utente
quizface
Utente Senior
 
Post: 14903
Iscritto il: 03/10/04 00:36

Re: Conversione video FULL HD

Postdi nikita75 » 03/09/17 16:45

si quizface ,purtroppo è a pagamento :cry:
Su questo pc castigato quale software free/very light si potrebbe installare :?:
Con il fremake sui video full hd il problema CPU è penoso! :(

Width : 1 920 pixels
Height : 1 080 pixels

Domani provero' a sperimentare l'open source HandBrake e vedere come si comporta tutto il pc
https://handbrake.fr/
Avatar utente
nikita75
Utente Senior
 
Post: 4912
Iscritto il: 31/07/09 13:36
Località: Alberobello (Bari )

Re: Conversione video FULL HD

Postdi nikita75 » 04/09/17 22:18

un elenco completo dei software di conversione video con l'indice di gradimento
vedi qui

qui l'elenco per i full HD H265 ..H264 vedi
Avatar utente
nikita75
Utente Senior
 
Post: 4912
Iscritto il: 31/07/09 13:36
Località: Alberobello (Bari )

Re: Conversione video FULL HD

Postdi nikita75 » 06/09/17 08:22

HANDBRAKEHo installato HandBrake home page , open source francese ...funziona bene e non compromette la CPU! Noto solo picchi al 100%.Riesco a navigare perfettamente durante la conversione :)
La velocita' di conversione di un file Full HD è discreta :( ( il winX HD HD converter( trial ) è molto piu' veloce ..anche se ho notato che non converte i sottotitoli nel video :-? :o )

HandBrake DOWNLOAD qui


un altro software che vorrei testare è MEGUI
vedi
Avatar utente
nikita75
Utente Senior
 
Post: 4912
Iscritto il: 31/07/09 13:36
Località: Alberobello (Bari )

Re: Conversione video FULL HD

Postdi nikita75 » 22/01/19 19:07

Video
ID : 1
Format : HEVC
Format/Info : High Efficiency Video Coding
Format profile : Main@L4@Main
Codec ID : V_MPEGH/ISO/HEVC
Duration : 2 h 21 min
Bit rate : 1 395 kb/s
Width : 1 920 pixels
Height : 800 pixels
Display aspect ratio : 2.40:1
Frame rate mode : Constant
Frame rate : 23.976 (24000/1001) FPS
Color space : YUV
Chroma subsampling : 4:2:0
Bit depth : 8 bits
Bits/(Pixel*Frame) : 0.038
Stream size : 1.38 GiB (85%)
Writing library : x265 2.2+2-998d4520d1cf:[Windows][GCC 6.2.0][64 bit] 8bit+10bit+12bit

https://sourceforge.net/projects/videoc ... ranscoder/

VCT - Video Converter & Transcoder
Transcode or convert files to H.264 or H.265 HEVC MKV/MP4 - ffmpeg GUI

Un eccellente convertitore FREE per in codec HEVC
Avatar utente
nikita75
Utente Senior
 
Post: 4912
Iscritto il: 31/07/09 13:36
Località: Alberobello (Bari )


Torna a Software Windows


Topic correlati a "Conversione video FULL HD":

problema scheda video?
Autore: lee27
Forum: Assistenza Hardware
Risposte: 2

Chi c’è in linea

Visitano il forum: Nessuno e 9 ospiti