Valutazione 4.87/ 5 (100.00%) 5838 voti

Condividi:        

Windows Media Player / file video .mts

Hai problemi con i file Zip, vuoi formattare l'HD, non sai come funziona FireFox? O magari ti serve proprio quel programmino di cui non ricordi il nome! Ecco il forum dove poter risolvere i tuoi problemi.

Moderatori: Dylan666, hydra, gahan

Windows Media Player / file video .mts

Postdi nikita75 » 26/07/15 17:21

ciao!
Ho collegato una movie camera esterna via USB al mio pc !tutto ok !
Cerco di leggere il file video .mts con Windows media player ma haime audio e video non sono in sincronia!
Idem con media player classic / con multi codec pack ! Lav si attiva durante la riproduzione
cosa suggerite ??

http://thewirecutter.com/reviews/best-video-camera/

.............................................................
ID : 0 (0x0)
Complete name : E:\,,,,,.......\AVCHD\BDMV\STREAM\00034.MTS
Format : BDAV
Format/Info : Blu-ray Video
File size : 489 MiB
Duration : 5mn 34s
Overall bit rate mode : Variable
Overall bit rate : 12.3 Mbps
Maximum Overall bit rate : 18.0 Mbps

Video
ID : 4113 (0x1011)
Menu ID : 1 (0x1)
Format : AVC
Format/Info : Advanced Video Codec
Format profile : High@L4.0
Format settings, CABAC : Yes
Format settings, ReFrames : 2 frames
Format settings, GOP : M=2, N=13
Codec ID : 27
Duration : 5mn 34s
Bit rate mode : Variable
Bit rate : 11.5 Mbps
Maximum bit rate : 16.0 Mbps
Width : 1 440 pixels
Height : 1 080 pixels
Display aspect ratio : 16:9
Frame rate : 25.000 fps
Color space : YUV
Chroma subsampling : 4:2:0
Bit depth : 8 bits
Scan type : Interlaced
Scan order : Top Field First
Bits/(Pixel*Frame) : 0.296
Stream size : 459 MiB (94%)

Audio
ID : 4352 (0x1100)
Menu ID : 1 (0x1)
Format : AC-3
Format/Info : Audio Coding 3
Mode extension : CM (complete main)
Format settings, Endianness : Big
Codec ID : 129
Duration : 5mn 34s
Bit rate mode : Constant
Bit rate : 256 Kbps
Channel(s) : 2 channels
Channel positions : Front: L R
Sampling rate : 48.0 KHz
Bit depth : 16 bits
Compression mode : Lossy
Delay relative to video : -80ms
Stream size : 10.2 MiB (2%)

Text
ID : 4608 (0x1200)
Menu ID : 1 (0x1)
Format : PGS
Codec ID : 144
Duration : 5mn 33s
Delay relative to video : -80ms
Avatar utente
nikita75
Utente Senior
 
Post: 4389
Iscritto il: 31/07/09 13:36

Sponsor
 

Re: Windows Media Player / file video .mts

Postdi nikita75 » 28/07/15 00:04

installare splash e va tutto bene
Avatar utente
nikita75
Utente Senior
 
Post: 4389
Iscritto il: 31/07/09 13:36


Torna a Software Windows


Topic correlati a "Windows Media Player / file video .mts":


Chi c’è in linea

Visitano il forum: Nessuno e 12 ospiti