Valutazione 4.87/ 5 (100.00%) 5838 voti

Condividi:        

calcolo bit rate per masterizzazione

Problemi di Codec - AC3, MPEG, DivX, Xvid...? Vuoi aiuto con la tua musica? Non sai come masterizzare i tuoi mp3? In questo forum tutte le risposte alle tue domande legali!

Moderatori: axelrox, m.paolo

calcolo bit rate per masterizzazione

Postdi nikita75 » 03/12/19 11:50

Voreei masterizzare in classico dvd Verbatim da 4,7 GB - purtroppo il file dvd originale ( Bup VoB.. ) è da 6,15 Giga B-

Con quale bit rate devo convertire tutto , per poter ridurre il video originale e masterizzarlo in un dvd da 4,7 giga??


Complete name : G:Live in New York\VIDEO_TS\VTS_03_1.VOB
Format : MPEG-PS
File size : 1 024 MiB
Duration : 21 min 33 s
Overall bit rate mode : Variable
Overall bit rate : 6 641 kb/s

Video
ID : 224 (0xE0)
Format : MPEG Video
Format version : Version 2
Format profile : Main@Main
Format settings : CustomMatrix / BVOP
Format settings, BVOP : Yes
Format settings, Matrix : Custom
Format settings, GOP : Variable
Format settings, picture st : Frame
Duration : 21 min 33 s
Bit rate mode : Variable
Bit rate : 5 178 kb/s
Maximum bit rate : 9 800 kb/s
Width : 720 pixels
Height : 576 pixels
Display aspect ratio : 16:9
Frame rate : 25.000 FPS
Standard : PAL
Color space : YUV
Chroma subsampling : 4:2:0
Bit depth : 8 bits
Scan type : Interlaced
Scan order : Top Field First
Compression mode : Lossy
Bits/(Pixel*Frame) : 0.499
Time code of first frame : 01:00:03:00
Time code source : Group of pictures header
GOP, Open/Closed : Open
GOP, Open/Closed of first f : Closed
Stream size : 798 MiB (78%)

Audio #1
ID : 189 (0xBD)-128 (0x80)
Format : AC-3
Format/Info : Audio Coding 3
Commercial name : Dolby Digital
Muxing mode : DVD-Video
Duration : 21 min 33 s
Bit rate mode : Constant
Bit rate : 192 kb/s
Channel(s) : 2 channels
Channel layout : L R
Sampling rate : 48.0 kHz
Frame rate : 31.250 FPS (1536 SPF)
Bit depth : 16 bits
Compression mode : Lossy
Stream size : 29.6 MiB (3%)
Service kind : Complete Main

Audio #2
ID : 189 (0xBD)-129 (0x81)
Format : AC-3
Format/Info : Audio Coding 3
Commercial name : Dolby Digital
Muxing mode : DVD-Video
Duration : 21 min 32 s
Bit rate mode : Constant
Bit rate : 384 kb/s
Channel(s) : 6 channels
Channel layout : L R C LFE Ls Rs
Sampling rate : 48.0 kHz
Frame rate : 31.250 FPS (1536 SPF)
Bit depth : 16 bits
Compression mode : Lossy
Stream size : 59.2 MiB (6%)
Service kind : Complete Main

Audio #3
ID : 189 (0xBD)-138 (0x8A)
Format : DTS
Format/Info : Digital Theater Systems
Muxing mode : DVD-Video
Duration : 21 min 32 s
Bit rate mode : Constant
Bit rate : 755 kb/s
Channel(s) : 6 channels
Channel layout : C L R Ls Rs LFE
Sampling rate : 48.0 kHz
Frame rate : 93.750 FPS (512 SPF)
Bit depth : 24 bits
Compression mode : Lossy
Stream size : 116 MiB (11%)

Text #1
ID : 189 (0xBD)-32 (0x20)
Format : RLE
Format/Info : Run-length encoding
Muxing mode : DVD-Video
Delay relative to video : 560 ms

Text #2
ID : 189 (0xBD)-33 (0x21)
Format : RLE
Format/Info : Run-length encoding
Muxing mode : DVD-Video
Delay relative to video : 480 ms

Text #3
ID : 189 (0xBD)-34 (0x22)
Format : RLE
Format/Info : Run-length encoding
Muxing mode : DVD-Video
Delay relative to video : 320 ms

Text #4
ID : 189 (0xBD)-35 (0x23)
Format : RLE
Format/Info : Run-length encoding
Muxing mode : DVD-Video
Delay relative to video : 360 ms

Text #5
ID : 189 (0xBD)-36 (0x24)
Format : RLE
Format/Info : Run-length encoding
Muxing mode : DVD-Video
Delay relative to video : 400 ms

Text #6
ID : 189 (0xBD)-37 (0x25)
Format : RLE
Format/Info : Run-length encoding
Muxing mode : DVD-Video
Delay relative to video : 520 ms

Menu
Avatar utente
nikita75
Utente Senior
 
Post: 4986
Iscritto il: 31/07/09 13:36
Località: Alberobello (Bari )

Sponsor
 

Re: calcolo bit rate per masterizzazione

Postdi Dylan666 » 04/12/19 16:06

Il link è vecchio ma il concetto resta:
http://www.pc-facile.com/download/dvd_r ... nk/228.htm
Avatar utente
Dylan666
Moderatore
 
Post: 38096
Iscritto il: 18/11/03 16:46

Re: calcolo bit rate per masterizzazione

Postdi nikita75 » 04/12/19 23:00

grazie Dylan666, DVD Shrink funziona se hai solo il File DVD.vob ?? non ho nessun dischetto da estrarre !
Avatar utente
nikita75
Utente Senior
 
Post: 4986
Iscritto il: 31/07/09 13:36
Località: Alberobello (Bari )

Re: calcolo bit rate per masterizzazione

Postdi Dylan666 » 05/12/19 12:45

Cercando online pare di sì, ma era la stessa ricerca che potevi fare tu
Avatar utente
Dylan666
Moderatore
 
Post: 38096
Iscritto il: 18/11/03 16:46


Torna a Audio/Video e masterizzazione


Topic correlati a "calcolo bit rate per masterizzazione":


Chi c’è in linea

Visitano il forum: Nessuno e 7 ospiti