Valutazione 4.87/ 5 (100.00%) 5838 voti

Condividi:        

Problema audio filmato

Problemi di Codec - AC3, MPEG, DivX, Xvid...? Vuoi aiuto con la tua musica? Non sai come masterizzare i tuoi mp3? In questo forum tutte le risposte alle tue domande legali!

Moderatori: axelrox, m.paolo

Problema audio filmato

Postdi Claudio84 » 02/02/10 17:24

Salve ragazzi ho un problema con l'audio di alcuni files avi.
I file in questione hanno le seguenti caratteristiche:

Format : AVI
Format/Info : Audio Video Interleave
File size : 392 MiB
Duration : 21mn 21s
Overall bit rate : 2 565 Kbps
Writing application : VirtualDubMod 1.5.10.2 (build 2542/release)
Writing library : VirtualDubMod build 2542/release
Video #0
ID : 0
Format : MPEG-4 Visual
Format profile : AdvancedSimple@L5
Format settings, BVOP : Yes
Format settings, QPel : No
Format settings, GMC : No warppoints
Format settings, Matrix : Default (MPEG)
Codec ID : XVID
Codec ID/Hint : XviD
Duration : 21mn 21s
Bit rate : 1 841 Kbps
Width : 640 pixels
Height : 464 pixels
Display aspect ratio : 1.379
Frame rate : 25.000 fps
Resolution : 24 bits
Colorimetry : 4:2:0
Scan type : Progressive
Bits/(Pixel*Frame) : 0.248
Stream size : 281 MiB (72%)
Writing library : XviD 1.1.2 (UTC 2006-11-01)
Audio #1
ID : 1
Format : AC-3
Format/Info : Audio Coding 3
Codec ID : 2000
Duration : 21mn 21s
Bit rate mode : Constant
Bit rate : 448 Kbps
Channel(s) : 6 channels
Channel positions : Front: L C R, Surround: L R, LFE
Sampling rate : 48.0 KHz
Stream size : 68.4 MiB (17%)
Alignment : Split accross interleaves
Interleave, duration : 40 ms (1.00 video frame)
Interleave, preload duration : 500 ms
Audio #2
ID : 2
Format : MPEG Audio
Format version : Version 1
Format profile : Layer 3
Codec ID : 55
Codec ID/Hint : MP3
Duration : 21mn 21s
Bit rate mode : Constant
Bit rate : 128 Kbps
Channel(s) : 2 channels
Sampling rate : 48.0 KHz
Resolution : 16 bits
Stream size : 19.6 MiB (5%)
Alignment : Aligned on interleaves
Interleave, duration : 40 ms (1.00 video frame)
Interleave, preload duration : 504 ms
Audio #3
ID : 3
Format : MPEG Audio
Format version : Version 1
Format profile : Layer 3
Codec ID : 55
Codec ID/Hint : MP3
Duration : 21mn 21s
Bit rate mode : Constant
Bit rate : 128 Kbps
Channel(s) : 2 channels
Sampling rate : 48.0 KHz
Resolution : 16 bits
Stream size : 19.6 MiB (5%)
Alignment : Aligned on interleaves
Interleave, duration : 40 ms (1.00 video frame)
Interleave, preload duration : 504 ms[/size]

Il mio lettore predefinito è KMPlayer che spero conosciate! Se seleziono l'audio italiano storico o giapponese non ho nessun problema mentre se vado a selezionare l'audio italiano aggiornato sento solo le musiche di sottofondo ed i suoni ambientali ma non le voci! Per sentire anche i dialoghi devo selezionare l'opzione audio-->rendi monofonico! Invece ho provato ad aprire il file con VLC e sento tutti e tre i tipi di audio senza nessun problema! Come mai?
Inoltre con VLC l'audio in generale si sente ad un volume molto più forte. Mi dispiacerebbe separarmi da KMPlayer, anche se potrei utilizzarli entrambi ma vorrei sapere da cosa dipende il mio problema!
Claudio84
Newbie
 
Post: 2
Iscritto il: 04/09/08 15:06

Sponsor
 

Re: Problema audio filmato

Postdi gahan » 02/02/10 18:15

Ciao,

se con VLC non hai nesun problema penso sia per il fatto che codesto software includa al suo interno tutti i codec per aprire ogni tipo di videoclip;

Differentemente altri lettori multimediali hanno bisogno delle DLL (librerie) necessarie per caricare i vari filmati con diversi codec.

installa e scarica K - lite mega codec, un pacchetto di tutti i codec aggiornati.

http://www.free-codecs.com/download_sof ... =5600&s=42

installa il pack scegliendo "default" come profilo d'installazione
riavvia il PC e riprova con KMplayer
words like violence, break the silence
Avatar utente
gahan
Moderatore
 
Post: 1397
Iscritto il: 23/01/08 16:09


Torna a Audio/Video e masterizzazione


Topic correlati a "Problema audio filmato":

Problema Windows 10
Autore: asso1998
Forum: Software Windows
Risposte: 1

Chi c’è in linea

Visitano il forum: Nessuno e 5 ospiti