Valutazione 4.87/ 5 (100.00%) 5838 voti

Condividi:        

problemi con Video to Audio Converter

Problemi di Codec - AC3, MPEG, DivX, Xvid...? Vuoi aiuto con la tua musica? Non sai come masterizzare i tuoi mp3? In questo forum tutte le risposte alle tue domande legali!

Moderatori: axelrox, m.paolo

problemi con Video to Audio Converter

Postdi Federika88 » 29/05/09 22:38

Salve a tutti!
Sono nuova da queste parti! Passo subito a descrivervi il mio problema.
Ho bisogno di convertire un file video .AVI della durata di 3 minuti (una canzone) in file .MP3.
Ho istallato un programma freeware (Video to Audio Converter) e al primo utilizzo mi da quest'errore.
Vi riporto per intero il procedimento che mi appare scritto.
Spero che qualcuno di voi mi possa aiutare!

#-1.2: Input #0, avi, from 'C:\Documents and Settings\Erika\Documenti\Video\MVI_6831.AVI':
#-1.2: Duration: 00:03:00.00, start: 0.000000, bitrate: 2587 kb/s
#-1.2: Stream #0.0: Video: mjpeg, yuvj422p, 320x240, 15.00 tb(r)
#-1.2: Stream #0.1: Audio: pcm_u8, 11024 Hz, mono, s16, 88 kb/s

***File has been added to convert list.

#0.2: Output #0, mp3, to 'C:\Documents and Settings\Erika\Documenti\Video\MVI_6831_(new).mp3':
#0.2: Stream #0.0: Audio: libmp3lame, 11024 Hz, mono, s16, 64 kb/s
#0.2: Stream mapping:
#0.2: Stream #0.1 -> #0.0
#0.0: Error while opening codec for output stream #0.0 - maybe incorrect parameters such as bit_rate, rate, width or height
Federika88
Newbie
 
Post: 1
Iscritto il: 29/05/09 22:33

Sponsor
 

Re: problemi con Video to Audio Converter

Postdi Markew » 07/06/09 16:44

Ciao.
Non ho ben capito cosa devi fare; un AVI che io sappia non si può convertire in MP3, in quanto parli di un formato video e di uno audio (dati compressi).
Forse intendi estrapolarti dal video AVI il formato audio? Es. colonna sonora, l'audio di un clip musicale...

By
Markew
Utente Senior
 
Post: 196
Iscritto il: 04/04/06 23:45


Torna a Audio/Video e masterizzazione


Topic correlati a "problemi con Video to Audio Converter":


Chi c’è in linea

Visitano il forum: Nessuno e 3 ospiti