Valutazione 4.87/ 5 (100.00%) 5838 voti

Condividi:        

Problemi riproduzione video

Problemi di Codec - AC3, MPEG, DivX, Xvid...? Vuoi aiuto con la tua musica? Non sai come masterizzare i tuoi mp3? In questo forum tutte le risposte alle tue domande legali!

Moderatori: axelrox, m.paolo

Problemi riproduzione video

Postdi sermick » 20/07/14 13:44

Ciao a tutti,
improvvisamete la riproduzione di qualsiasi video procede a scatti, mentre l'audio è regolare. Come programma uso wmp, S.O. W7 64 bit, asrock fm2a55m-vg3+. Grazie per l'aiuto.
sermick
Utente Junior
 
Post: 80
Iscritto il: 15/06/08 08:06

Sponsor
 

Re: Problemi riproduzione video

Postdi davide72 » 20/07/14 17:35

è un problema di codifica e accellerazione hardware della tua scheda video , innanzitutto dovresti vedere il codec presente nel file video
Avatar utente
davide72
Utente Senior
 
Post: 5582
Iscritto il: 10/06/14 22:01

Re: Problemi riproduzione video

Postdi sermick » 20/07/14 22:07

Credo di avere il problema con i file .mp4, ho aperto altri tipi di file ma questi vanno bene. Cosa mi consigli di fare?
sermick
Utente Junior
 
Post: 80
Iscritto il: 15/06/08 08:06

Re: Problemi riproduzione video

Postdi davide72 » 20/07/14 22:16

prova ad installare il codec pack , http://www.filehippo.com/download_klite ... 3cc71b4e6/ durante l' installazione seleziona il codec xvid
Avatar utente
davide72
Utente Senior
 
Post: 5582
Iscritto il: 10/06/14 22:01

Re: Problemi riproduzione video

Postdi sermick » 20/07/14 22:31

Ho installato K-lite mega codec pack 9.9.5. Ho riavviato il pc, ma il problema rimane . . .
sermick
Utente Junior
 
Post: 80
Iscritto il: 15/06/08 08:06

Re: Problemi riproduzione video

Postdi sermick » 20/07/14 22:34

dimenticavo, ti confermo la spunta sui file .mp4 spostata su xvid.
sermick
Utente Junior
 
Post: 80
Iscritto il: 15/06/08 08:06

Re: Problemi riproduzione video

Postdi davide72 » 20/07/14 22:45

apri codec teawk tool > MS codec teak > e spunta mpeg4s decoder dmo e mpeg43 decoder dmo applica e chiudi
Avatar utente
davide72
Utente Senior
 
Post: 5582
Iscritto il: 10/06/14 22:01

Re: Problemi riproduzione video

Postdi davide72 » 20/07/14 23:04

se vuoi fai clic destro sul file mp4 > mediainfo , quindi save text file e postalo
Avatar utente
davide72
Utente Senior
 
Post: 5582
Iscritto il: 10/06/14 22:01

Re: Problemi riproduzione video

Postdi sermick » 20/07/14 23:08

General
Complete name : F:\copia di backup del 20.08.2010\Sergio verbatim\Musica\Video musicali\(Just like) Starting Over - John Lennon - cover.mp4
Format : MPEG-4
Format profile : Base Media / Version 2
Codec ID : mp42
File size : 18.1 MiB
Duration : 3mn 27s
Overall bit rate mode : Variable
Overall bit rate : 730 Kbps
Encoded date : UTC 2011-05-14 17:11:42
Tagged date : UTC 2011-05-14 17:11:42
gsst : 0
gstd : 207986
gssd : BADC200A3HH1381943418678083
gshh : r12---sn-25ge7n7d.c.youtube.com

Video
ID : 1
Format : AVC
Format/Info : Advanced Video Codec
Format profile : Baseline@L3.0
Format settings, CABAC : No
Format settings, ReFrames : 1 frame
Codec ID : avc1
Codec ID/Info : Advanced Video Coding
Duration : 3mn 27s
Bit rate : 628 Kbps
Maximum bit rate : 1 466 Kbps
Width : 640 pixels
Height : 360 pixels
Display aspect ratio : 16:9
Frame rate mode : Variable
Frame rate : 29.970 fps
Minimum frame rate : 29.412 fps
Maximum frame rate : 200.000 fps
Color space : YUV
Chroma subsampling : 4:2:0
Bit depth : 8 bits
Scan type : Progressive
Bits/(Pixel*Frame) : 0.091
Stream size : 15.6 MiB (86%)
Tagged date : UTC 2011-05-14 17:11:43

Audio
ID : 2
Format : AAC
Format/Info : Advanced Audio Codec
Format profile : LC
Codec ID : 40
Duration : 3mn 27s
Bit rate mode : Variable
Bit rate : 96.0 Kbps
Maximum bit rate : 120 Kbps
Channel(s) : 2 channels
Channel positions : Front: L R
Sampling rate : 44.1 KHz
Compression mode : Lossy
Stream size : 2.38 MiB (13%)
Title : (C) 2007 Google Inc. v08.13.2007.
Encoded date : UTC 2011-05-14 17:11:43
Tagged date : UTC 2011-05-14 17:11:43
sermick
Utente Junior
 
Post: 80
Iscritto il: 15/06/08 08:06

Re: Problemi riproduzione video

Postdi davide72 » 21/07/14 10:38

col media player classic come si vede ?
Avatar utente
davide72
Utente Senior
 
Post: 5582
Iscritto il: 10/06/14 22:01

Re: Problemi riproduzione video

Postdi sermick » 21/07/14 11:45

con mpclassic è ok. Solo che prima di avviarsi si apre un finestra di errore, barra del titolo: error creating EVR custom renderer. Contenuto: create device failed. Error code: 0x88766086A. DX9 allocator presenter failed ecc.
sermick
Utente Junior
 
Post: 80
Iscritto il: 15/06/08 08:06

Re: Problemi riproduzione video

Postdi davide72 » 21/07/14 14:10

apri mpc e opzioni >output > posta uno screen

questo l' avevi installato ? http://www.microsoft.com/it-it/download ... aspx?id=35
Avatar utente
davide72
Utente Senior
 
Post: 5582
Iscritto il: 10/06/14 22:01


Torna a Audio/Video e masterizzazione


Topic correlati a "Problemi riproduzione video":

alcuni problemi...
Autore: gibo
Forum: Assistenza Hardware
Risposte: 2

Chi c’è in linea

Visitano il forum: Nessuno e 4 ospiti